Welcome Guest ( Log In | Register )

Объявления

* gmail.com упорно продолжает считать почту с нас "unsolicited" и отбивает в том числе и письма активации, поэтому просьба использовать альтернативные почтовые ящики.
------------
* gmail.com continues reject all mail from us as "unsolicited" (activation mails too) therefore please use alternate mail servers.

> Releases Upload / Добавление релизов

Добавить релиз тут / Click here to add release
Рекомендованные обменники / Recommended file shares

 
Reply to this topicStart new topic
> Dunerider - Cocaine [single] (2021), Sludge/Stoner/Doom Metal
post Jul 10 2024, 15:16:16
Post #1

Serial Uploader
Group Icon
Group: V.I.P
Posts: 42,944
Releases: 41005
From: Lithuania
On Forums: 16 years 1 month
Thanks: 526989 time(s)
Lithuania


(IMG:https://metalarea.org/images/audiocovers/2024_Jul/acov_tid399350_thumb.jpg)

*Artist: Dunerider
*Album: Cocaine [single]
*Year: 2021
*Genre: Sludge/Stoner/Doom Metal
*Country: France (IMG:https://metalarea.org/forum/style_images/flags/France.png)
*Format: mp3@CBR320kbps
*Size: 13MB

Tracklist:
01. Cocaine (J. J. Cale Cover) 05:42
******************************
Total playing time: 5:42



(IMG:https://metalarea.org/images/youtube.png)

Technical info
(IMG:https://metalarea.org/images/spectrogram/2024_Jul/1a430efd7d488731cc62ce1753a29722.png)
Input File: 01. Cocaine (single).mp3
Channels : 2
Sample Rate : 44100
Precision : 16-bit
Duration : 00:05:42.33 = 15096621 samples = 25674.5 CDDA sectors
File Size : 13.9M
Bit Rate : 324k
Sample Encoding: MPEG audio (layer I, II or III)
Comments :
Title=Cocaine (single)
Artist=Dunerider
Tracknumber=1
Year=2021



Register


Go to the top of the page
  Insert nick Quick quote
+Quote Post

Reply to this topicStart new topic
2 User(s) are reading this topic (2 Guests and 0 Anonymous Users)
0 Members:

 



- Lo-Fi Version Support form
Copyrights and abuse reports form
Time is now: 15th July 2024 - 21:13:01