Welcome Guest ( Log In | Register )

Объявления

* gmail.com упорно продолжает считать почту с нас "unsolicited" и отбивает в том числе и письма активации, поэтому просьба использовать альтернативные почтовые ящики.
------------
* gmail.com continues reject all mail from us as "unsolicited" (activation mails too) therefore please use alternate mail servers.

> Releases Upload / Добавление релизов

Добавить релиз тут / Click here to add release
Рекомендованные обменники / Recommended file shares

 
Reply to this topicStart new topic
> Vierus - Foul People [single] (2023), Brutal Death Metal
post Jul 10 2024, 15:25:45
Post #1

Serial Uploader
Group Icon
Group: V.I.P
Posts: 42,944
Releases: 41005
From: Lithuania
On Forums: 16 years 1 month
Thanks: 526989 time(s)
Lithuania


(IMG:https://metalarea.org/images/audiocovers/2024_Jul/acov_tid399351_thumb.jpg)

*Artist: Vierus
*Album: Foul People [single]
*Year: 2023
*Genre: Brutal Death Metal
*Country: United States (IMG:https://metalarea.org/forum/style_images/flags/United%20States.png)
*Format: mp3@CBR320kbps
*Size: 8MB

Tracklist:
01. Foul People 02:24
******************************
Total playing time: 2:24

Preview 1
(IMG:https://metalarea.org/images/youtube.png)

Extended info
Exclusive for Metalarea.org


Technical info
(IMG:https://metalarea.org/images/spectrogram/2024_Jul/875f293ca691b67849ef64d9c71489ae.png)
Input File: 01. Foul People.mp3
Channels : 2
Sample Rate : 44100
Precision : 16-bit
Duration : 00:02:24.94 = 6391634 samples = 10870.1 CDDA sectors
File Size : 8.49M
Bit Rate : 469k
Sample Encoding: MPEG audio (layer I, II or III)
Comments :
Title=Foul People
Artist=VIERUS
Album=Foul People
Tracknumber=1
Year=2023
Genre=Hard Rock



Register


Thanks:
(2) artscald, Wail,
Go to the top of the page
  Insert nick Quick quote
+Quote Post

Reply to this topicStart new topic
2 User(s) are reading this topic (2 Guests and 0 Anonymous Users)
0 Members:

 



- Lo-Fi Version Support form
Copyrights and abuse reports form
Time is now: 15th July 2024 - 21:24:16