Welcome Guest ( Log In | Register )

Объявления

* gmail.com упорно продолжает считать почту с нас "unsolicited" и отбивает в том числе и письма активации, поэтому просьба использовать альтернативные почтовые ящики.
------------
* gmail.com continues reject all mail from us as "unsolicited" (activation mails too) therefore please use alternate mail servers.

> Releases Upload / Добавление релизов

Добавить релиз тут / Click here to add release
Рекомендованные обменники / Recommended file shares

 
Reply to this topicStart new topic
> Vierus - Performing An Autopsy [ep] (2024), Brutal Death Metal
post Jul 10 2024, 15:36:48
Post #1

Serial Uploader
Group Icon
Group: V.I.P
Posts: 42,944
Releases: 41005
From: Lithuania
On Forums: 16 years 1 month
Thanks: 526989 time(s)
Lithuania


(IMG:https://metalarea.org/images/audiocovers/2024_Jul/acov_tid399352_thumb.jpg)

*Artist: Vierus
*Album: Performing An Autopsy [ep]
*Year: 2024
*Genre: Brutal Death Metal
*Country: United States (IMG:https://metalarea.org/forum/style_images/flags/United%20States.png)
*Format: mp3@CBR320kbps
*Size: 50MB

Tracklist:
1. The Autopsy Of The Tortured 04:11
2. Flying Brains! 04:09
3. Execution Performed With A Chainsaw 05:14
4. The Sweet Taste Of A Bloody Revenge 03:36
******************************
Total playing time: 17:10

Preview 1
(IMG:https://metalarea.org/images/youtube.png)

Extended info
Exclusive for Metalarea.org


Technical info
(IMG:https://metalarea.org/images/spectrogram/2024_Jul/d382c8b3f636766bbfd29c065aa33d4b.png)
Input File: 02. Flying Brains!.mp3
Channels : 2
Sample Rate : 44100
Precision : 16-bit
Duration : 00:04:09.93 = 11021781 samples = 18744.5 CDDA sectors
File Size : 12.7M
Bit Rate : 406k
Sample Encoding: MPEG audio (layer I, II or III)
Comments :
Title=Flying Brains!
Artist=VIERUS
Album=Performing an Autopsy
Tracknumber=2
Year=2024
Genre=Hard Rock



Register


Go to the top of the page
  Insert nick Quick quote
+Quote Post

Reply to this topicStart new topic
2 User(s) are reading this topic (2 Guests and 0 Anonymous Users)
0 Members:

 



- Lo-Fi Version Support form
Copyrights and abuse reports form
Time is now: 15th July 2024 - 21:36:38