Welcome Guest ( Log In | Register )

Объявления

* gmail.com упорно продолжает считать почту с нас "unsolicited" и отбивает в том числе и письма активации, поэтому просьба использовать альтернативные почтовые ящики.
------------
* gmail.com continues reject all mail from us as "unsolicited" (activation mails too) therefore please use alternate mail servers.

> Releases Upload / Добавление релизов

Добавить релиз тут / Click here to add release
Рекомендованные обменники / Recommended file shares

 
Reply to this topicStart new topic
> Perky Macabre - Stiff Nothings [ep] (2024), Grindcore (D430)
post Jul 10 2024, 15:50:44
Post #1

Serial Uploader
Group Icon
Group: V.I.P
Posts: 42,944
Releases: 41005
From: Lithuania
On Forums: 16 years 1 month
Thanks: 526989 time(s)
Lithuania


(IMG:https://metalarea.org/images/audiocovers/2024_Jul/acov_tid399353_thumb.jpg)

*Artist: Perky Macabre
*Album: Stiff Nothings [ep]
*Year: 2024
*Genre: Grindcore
*Country: United States (IMG:https://metalarea.org/forum/style_images/flags/United%20States.png)
*Format: mp3@CBR320kbps
*Size: 8MB

Tracklist:
1. Ghostly Touch 00:14
2. Apparitions 00:26
3. Putrefied 00:47
4. Zombie 00:55
5. Stiff Nothings 00:20
6. Grave Wanderer 00:11
******************************
Total playing time: 2:53



Technical info
(IMG:https://metalarea.org/images/spectrogram/2024_Jul/904203ad49d3cb65b28be26cab6537a9.png)
Input File: Perky Macabre - Stiff Nothings - 02 Apparitions.mp3
Channels : 2
Sample Rate : 44100
Precision : 16-bit
Duration : 00:00:26.31 = 1160095 samples = 1972.95 CDDA sectors
File Size : 1.22M
Bit Rate : 371k
Sample Encoding: MPEG audio (layer I, II or III)
Comments :
Title=Apparitions
Artist=Perky Macabre
Album=Stiff Nothings
Tracknumber=2
Year=2024



Register


Thanks:
(2) artscald, Wail,
Go to the top of the page
  Insert nick Quick quote
+Quote Post

Reply to this topicStart new topic
2 User(s) are reading this topic (2 Guests and 0 Anonymous Users)
0 Members:

 



- Lo-Fi Version Support form
Copyrights and abuse reports form
Time is now: 15th July 2024 - 21:45:36