Welcome Guest ( Log In | Register )

Объявления

* gmail.com упорно продолжает считать почту с нас "unsolicited" и отбивает в том числе и письма активации, поэтому просьба использовать альтернативные почтовые ящики.
------------
* gmail.com continues reject all mail from us as "unsolicited" (activation mails too) therefore please use alternate mail servers.

> Releases Upload / Добавление релизов

Добавить релиз тут / Click here to add release
Рекомендованные обменники / Recommended file shares

 
Reply to this topicStart new topic
> Skulltribe - Undead [ep] (2024), Death/Doom Metal
post Jul 10 2024, 15:58:18
Post #1

Serial Uploader
Group Icon
Group: V.I.P
Posts: 42,944
Releases: 41005
From: Lithuania
On Forums: 16 years 1 month
Thanks: 526990 time(s)
Lithuania


(IMG:https://metalarea.org/images/audiocovers/2024_Jul/acov_tid399354_thumb.jpg)

*Artist: Skulltribe
*Album: Undead [ep]
*Year: 2024
*Genre: Death/Doom Metal
*Country: United States (IMG:https://metalarea.org/forum/style_images/flags/United%20States.png)
*Format: mp3@CBR320kbps
*Size: 25MB

Tracklist:
1. Pierce The Veil 03:18
2. Not Dead Yet 02:55
3. My Pain 02:46
4. March To Death 01:39
******************************
Total playing time: 10:38


(IMG:https://metalarea.org/images/youtube.png)

Technical info
(IMG:https://metalarea.org/images/spectrogram/2024_Jul/b88b7c754a4c748fa09aea965d8127fa.png)
Input File: 02. Not Dead Yet.mp3
Channels : 2
Sample Rate : 44100
Precision : 16-bit
Duration : 00:02:55.94 = 7759130 samples = 13195.8 CDDA sectors
File Size : 7.16M
Bit Rate : 325k
Sample Encoding: MPEG audio (layer I, II or III)
Comments :
Title=Not Dead Yet
Artist=skulltribe
Album=U N D E A D
Tracknumber=2
Year=2024



Register


Go to the top of the page
  Insert nick Quick quote
+Quote Post

Reply to this topicStart new topic
1 User(s) are reading this topic (1 Guests and 0 Anonymous Users)
0 Members:

 



- Lo-Fi Version Support form
Copyrights and abuse reports form
Time is now: 15th July 2024 - 22:33:16