Welcome Guest ( Log In | Register )

Объявления

* gmail.com упорно продолжает считать почту с нас "unsolicited" и отбивает в том числе и письма активации, поэтому просьба использовать альтернативные почтовые ящики.
------------
* gmail.com continues reject all mail from us as "unsolicited" (activation mails too) therefore please use alternate mail servers.

> Releases Upload / Добавление релизов

Добавить релиз тут / Click here to add release
Рекомендованные обменники / Recommended file shares

> Skulltribe - Skulltribe (2019), Death/Doom Metal
post Jul 10 2024, 16:11:00
Post #1

Serial Uploader
Group Icon
Group: V.I.P
Posts: 42,944
Releases: 41005
From: Lithuania
On Forums: 16 years 1 month
Thanks: 526988 time(s)
Lithuania


(IMG:https://metalarea.org/images/audiocovers/2024_Jul/acov_tid399356_thumb.jpg)

*Artist: Skulltribe
*Album: Skulltribe
*Year: 2019
*Genre: Death/Doom Metal
*Country: United States (IMG:https://metalarea.org/forum/style_images/flags/United%20States.png)
*Format: mp3@CBR320kbps
*Size: 62MB

Tracklist:
1. Prelude To Rot 02:11
2. Rot! 01:57
3. Forest Of Death 01:35
4. Horns Of War 03:23
5. Karma Come Down 02:29
6. Spirit Charm 01:39
7. Night Vision 02:02
8. Terror Tactics 02:56
9. Kill The Kings 01:40
10.The Temple Of Tecolote 03:30
11. Sound The Alarm 02:11
******************************
Total playing time: 25:33


(IMG:https://metalarea.org/images/youtube.png)

Technical info
(IMG:https://metalarea.org/images/spectrogram/2024_Jul/00ed44747c78431180553f11f15c20e4.png)
Input File: 02. ROT!.mp3
Channels : 2
Sample Rate : 44100
Precision : 16-bit
Duration : 00:01:58.05 = 5206137 samples = 8853.97 CDDA sectors
File Size : 4.82M
Bit Rate : 327k
Sample Encoding: MPEG audio (layer I, II or III)
Comments :
Title=ROT!
Artist=skulltribe
Album=SKULLTRIBE
Tracknumber=2
Year=2019



Register


Go to the top of the page
  Insert nick Quick quote
+Quote Post
 
Start new topic
Replies (1 - 1)
post Jul 11 2024, 09:17:10
Post #2

Правь статус, ####!111
**************
Group: Металариец
Posts: 2,850
Releases: 426
From: Bretagne
On Forums: 16 years 1 month
Thanks: 5357 time(s)
France


uncommon death metal with various influences (doom, groove, brutal death...) (IMG:style_emoticons/default/hmm.gif)

"name your price" on bandcamp
Go to the top of the page
  Insert nick Quick quote
+Quote Post

Reply to this topicStart new topic
1 User(s) are reading this topic (1 Guests and 0 Anonymous Users)
0 Members:

 



- Lo-Fi Version Support form
Copyrights and abuse reports form
Time is now: 15th July 2024 - 20:51:31