Welcome Guest ( Log In | Register )

Объявления

* gmail.com упорно продолжает считать почту с нас "unsolicited" и отбивает в том числе и письма активации, поэтому просьба использовать альтернативные почтовые ящики.
------------
* gmail.com continues reject all mail from us as "unsolicited" (activation mails too) therefore please use alternate mail servers.

> Releases Upload / Добавление релизов

Добавить релиз тут / Click here to add release
Рекомендованные обменники / Recommended file shares

 
Reply to this topicStart new topic
> Gripharium - Surrender To The Absolute (2024), Progressive Death Metal
post Jul 10 2024, 20:19:55
Post #1

Правь статус, ####!111
**************
Group: Металариец
Posts: 36,412
Releases: 27145
From: Г.Харьков
On Forums: 12 years 2 months
Thanks: 591282 time(s)
Ukraine


(IMG:https://metalarea.org/images/audiocovers/2024_Jul/acov_tid399358_thumb.jpg)

*Artist: Gripharium
*Album: Surrender To The Absolute
*Year: 2024
*Genre: Progressive Death Metal
*Country: Mexico (IMG:https://metalarea.org/forum/style_images/flags/Mexico.png)
*Format: mp3@CBR320kbps
*Size: 92MB

Tracklist:
01. A Maze, a Torment...
02. Gripharium
03. Abyssal Hecatomb
04. Between Shadows and Nightmares
05. Astral Parasites
06. Abyssum et Mortem
07. Ligatum in Tenebris
08. Into Paths of Death
09. Conjuring Errant Souls
10. It Came from the Mirror
******************************
Total playing time: 39:23



Extended info
Ali Drums
Gary Guitars, Vocals


Technical info
(IMG:https://metalarea.org/images/spectrogram/2024_Jul/362488da017b6f8033996c1bbef69ff7.png)
Input File: 07 - Ligatum In Tenebris.mp3
Channels : 2
Sample Rate : 44100
Precision : 16-bit
Duration : 00:05:11.00 = 13715100 samples = 23325 CDDA sectors
File Size : 12.7M
Bit Rate : 326k
Sample Encoding: MPEG audio (layer I, II or III)
Comments :
Title=Ligatum In Tenebris
Artist=Gripharium
Album=Surrender To The Absolute
Tracknumber=7
Year=2024-07-11
Genre=Alternative
Discnumber=1



Register


Go to the top of the page
  Insert nick Quick quote
+Quote Post

Reply to this topicStart new topic
1 User(s) are reading this topic (1 Guests and 0 Anonymous Users)
0 Members:

 



- Lo-Fi Version Support form
Copyrights and abuse reports form
Time is now: 15th July 2024 - 21:21:44