Welcome Guest ( Log In | Register )

Объявления

* gmail.com упорно продолжает считать почту с нас "unsolicited" и отбивает в том числе и письма активации, поэтому просьба использовать альтернативные почтовые ящики.
------------
* gmail.com continues reject all mail from us as "unsolicited" (activation mails too) therefore please use alternate mail servers.

> Releases Upload / Добавление релизов

Добавить релиз тут / Click here to add release
Рекомендованные обменники / Recommended file shares

> Storm - Violent City (2024), Heavy Metal (D15)
post Jul 10 2024, 20:38:09
Post #1

Правь статус, ####!111
**************
Group: Металариец
Posts: 36,411
Releases: 27145
From: Г.Харьков
On Forums: 12 years 2 months
Thanks: 591280 time(s)
Ukraine


(IMG:https://metalarea.org/images/audiocovers/2024_Jul/acov_tid399359_thumb.jpg)

*Artist: Storm
*Album: Violent City
*Year: 2024
*Genre: Heavy Metal
*Country: South Korea (IMG:https://metalarea.org/forum/style_images/flags/South%20Korea.png)
*Format: mp3@CBR320kbps
*Size: 82MB

Tracklist:
1. Eye of Storm 01:50 instrumental
2. Storm 03:50
3. Mirror of Karma 04:03
4. Violent City 04:34
5. Breaking the Ball 04:23
6. Bloody Valentine 03:25
7. Heavy Metal 04:43
8. The Way of Hell 03:59
9. Fire 04:29
******************************
Total playing time: 35:16



Extended info
Shuha Vocals, Guitars (2003-present)
Kai Drums (2017-present)
Ende Bass (2018-present)
See also: Élan Vital, Hannaraectomy, Skyggen
Michael Guitar (2020-present)
D.D Drums (2022-present)


Technical info
(IMG:https://metalarea.org/images/spectrogram/2024_Jul/25002f27051ded8e0c4303ebbba6e602.png)
Input File: 07 - Heavy Metal.mp3
Channels : 2
Sample Rate : 44100
Precision : 16-bit
Duration : 00:04:43.00 = 12480300 samples = 21225 CDDA sectors
File Size : 11.5M
Bit Rate : 324k
Sample Encoding: MPEG audio (layer I, II or III)
Comments :
Title=Heavy Metal
Artist=Storm
Album=VIOLENT CITY
Tracknumber=7
Year=2024-06-24
Genre=Metal
Discnumber=1



Register


Go to the top of the page
  Insert nick Quick quote
+Quote Post
 
Start new topic
Replies (1 - 1)
post Jul 12 2024, 23:49:03
Post #2

Друг Уточек
*****
Group: Металариец
Posts: 497
Releases: 65
From: Гексия
On Forums: 15 years 6 months
Thanks: 393 time(s)
Russian Federation


Недавно искал релизы данного коллектива ещё про альбом не знал. а тут оказывается подъехало... а 10-го что-то не заметил. Послушал, вполне очень хорошо и на корейском поют что немаловажно (для меня). с почином ребятки. Спасибо за релиз!
Go to the top of the page
  Insert nick Quick quote
+Quote Post

Reply to this topicStart new topic
2 User(s) are reading this topic (2 Guests and 0 Anonymous Users)
0 Members:

 



- Lo-Fi Version Support form
Copyrights and abuse reports form
Time is now: 15th July 2024 - 21:03:56