Welcome Guest ( Log In | Register )

Объявления

* gmail.com упорно продолжает считать почту с нас "unsolicited" и отбивает в том числе и письма активации, поэтому просьба использовать альтернативные почтовые ящики.
------------
* gmail.com continues reject all mail from us as "unsolicited" (activation mails too) therefore please use alternate mail servers.
 
Reply to this topicStart new topic
> Morbid Winds - The Endless Ritual Of The Night [demo] (2019), Black Metal
post Jul 10 2024, 22:35:52
Post #1

Group: Подсевший
Posts: 23
Releases: 16
On Forums: 11 months 4 weeks
Thanks: 240 time(s)
Poland


(IMG:https://metalarea.org/images/audiocovers/2024_Jul/acov_tid399360_thumb.jpg)

*Artist: Morbid Winds
*Album: The Endless Ritual Of The Night [demo]
*Year: 2019
*Genre: Black Metal
*Country: Poland (IMG:https://metalarea.org/forum/style_images/flags/Poland.png)
*Format: mp3@CBR320kbps
*Size: 32MB

Tracklist:
1. Intro 01:51
2. Worms of Filth 02:13
3. The Symbol of Disgrace 03:29
4. We, the Darkness 02:45
6. The Endless Ritual of the Night 01:51
7. Outro 01:47
******************************
Total playing time: 13:56

Technical info
(IMG:https://metalarea.org/images/spectrogram/2024_Jul/dbaeb57d86ffa95d609df4fe434667ac.png)
Input File: 03 The Symbol of Disgrace.mp3
Channels : 2
Sample Rate : 44100
Precision : 16-bit
Duration : 00:03:29.51 = 9239523 samples = 15713.5 CDDA sectors
File Size : 8.38M
Bit Rate : 320k
Sample Encoding: MPEG audio (layer I, II or III)
Comments :
Title=The Symbol of Disgrace
Artist=Morbid Winds
Album=The Endless Ritual of the Night
Tracknumber=3
Year=2019



Register


Go to the top of the page
  Insert nick Quick quote
+Quote Post

Reply to this topicStart new topic
2 User(s) are reading this topic (2 Guests and 0 Anonymous Users)
0 Members:

 



- Lo-Fi Version Support form
Copyrights and abuse reports form
Time is now: 15th July 2024 - 22:44:09