Welcome Guest ( Log In | Register )

Объявления

* gmail.com упорно продолжает считать почту с нас "unsolicited" и отбивает в том числе и письма активации, поэтому просьба использовать альтернативные почтовые ящики.
------------
* gmail.com continues reject all mail from us as "unsolicited" (activation mails too) therefore please use alternate mail servers.

> Releases Upload / Добавление релизов

Добавить релиз тут / Click here to add release
Рекомендованные обменники / Recommended file shares

> Necroneutron - Sepulchre Satan (2020), Black/Thrash Metal
post Jul 10 2024, 22:46:50
Post #1

Правь статус, 616
**************
Group: Металариец
Posts: 11,010
Releases: 8965
From: 55°35’N 38°08’E
On Forums: 16 years 1 week
Thanks: 159615 time(s)
Russian Federation


(IMG:https://metalarea.org/images/audiocovers/2024_Jul/acov_tid399361_thumb.jpg)

*Artist: Necroneutron
*Album: Sepulchre Satan
*Year: 2020
*Genre: Black/Thrash Metal
*Country: Mexico (IMG:https://metalarea.org/forum/style_images/flags/Mexico.png)
*Format: mp3@CBR320kbps
*Size: 83MB

Tracklist:
1.(Intro) Mourning for the Damned / Sepulchre Satan 05:26
2.Desecrating Evil Art 03:29
3.Arch-Demon Manifesto (Blasphemofaust) 03:54
4.Nero’s Lighten Path 03:08
5.Flaming Providence 04:10
6.Deathcraft Gospel 04:22
7.Portrayer of Pest 05:54
8.Prelusion to Cythraul and Shineth Unto the Cold Cometh (Absu cover) 05:11
******************************
Total playing time: 35:34




Extended info
Reissue 2022


Technical info
(IMG:https://metalarea.org/images/spectrogram/2024_Jul/2006380cf9e49aec9d8644897702dc72.png)
Input File: 02 Desecrating Evil Art.mp3
Channels : 2
Sample Rate : 44100
Precision : 16-bit
Duration : 00:03:29.28 = 9229292 samples = 15696.1 CDDA sectors
File Size : 8.55M
Bit Rate : 327k
Sample Encoding: MPEG audio (layer I, II or III)
Comments :
Title=Desecrating Evil Art
Artist=Necroneutron
Album=Sepulcre Satan
Tracknumber=2/8
Year=2020
Genre=Black Metal
Discnumber=1/1



Register


Go to the top of the page
  Insert nick Quick quote
+Quote Post
 
Start new topic
Replies (1 - 1)
post Jul 11 2024, 05:34:21
Post #2

Group: Дух
Posts: 4
Releases: 0
On Forums: 1 month 3 weeks
Thanks: 0 time(s)
Italy


Good Stuff !!!!!!
Go to the top of the page
  Insert nick Quick quote
+Quote Post

Reply to this topicStart new topic
2 User(s) are reading this topic (2 Guests and 0 Anonymous Users)
0 Members:

 



- Lo-Fi Version Support form
Copyrights and abuse reports form
Time is now: 15th July 2024 - 22:30:08