Help - Search - Members - Calendar
Full Version: The Cranberries - To The Faithful Departed (1996)
Metal Area - Extreme Music Portal > Releases Area / Релизы > New Releases > Unformat R:
Lanceatum


*Artist: The Cranberries
*Album: To The Faithful Departed
*Year: 1996
*Genre: Rock/Alternative
*Country: Ireland
*Format: mp3@CBR320kbps
*Size: 115MB

Tracklist:
01. Hollywood 05:07
02. Salvation 02:24
03. When You're Gone 04:57
04. Free To Decide 04:25
05. War Child 03:50
06. Forever Yellow Skies 04:10
07. The Rebels 03:21
08. I Just Shot John Lennon 02:41
09. Electric Blue 04:51
10. I'm Still Remembering 04:49
11. Will You Remember 02:49
12. Joe 03:22
13. Bosnia 05:37
******************************
Total playing time: 52:23

Extended info



Input File: 02 - Salvation.mp3
Channels : 2
Sample Rate : 44100
Precision : 16-bit
Duration : 00:02:24.04 = 6351944 samples = 10802.6 CDDA sectors
File Size : 5.76M
Bit Rate : 320k
Sample Encoding: MPEG audio (layer I, II or III)
Comments :
Title=Salvation
Artist=The Cranberries
Album=To the Faithful Departed
Tracknumber=02
Year=1996
Genre=Rock/Alternative



[ Hidden Text ]
Old Vyaine
Замечательный альбом. Возможно, лучший в их диско. Очень разнообразный, от спокойно-меланхоличных Free To Decide и Will You Remember? до шустрых Salvation и Forever Yellow Skies. И рвуще отчаянные Hollywood и Bosnia.
Пожалуй, сабж и следующий за ним Bury The Hatchet — вершина творчества группы.
sperminator
from the web - lossless (Japanese edition)
[ Hidden Text ]
This is a "lo-fi" version of our main content. To view the full version with more information, formatting and images, please click here.
Invision Power Board © 2001-2019 Invision Power Services, Inc.