Help - Search - Members - Calendar
Full Version: Goatpsalm - Sonic Desterilization Of Light (2010)
Metal Area - Extreme Music Portal > Releases Area / Релизы > New Releases > Unformat R:
LarsIsLars


*Artist: Goatpsalm
*Album: Sonic Desterilization Of Light
*Year: 2010
*Genre: Death Industrial/Ritual/dark Ambient
*Country: Russian Federation
*Format: mp3@CBR320kbps
*Size: 118MB

Tracklist:
1. Sickness
2. Abscedentia
3. The Procession
4. Hac Via
5. Akelarrenlezeah
6. Nekromantikal Rites Of The Goat
7. Antilife Principle Omega
8. Sempiternal Funeral Fields
******************************
Total playing time: 53:25

Extended info



Input File: 05. Akelarrenlezeah.mp3
Channels : 2
Sample Rate : 44100
Precision : 16-bit
Duration : 00:02:28.11 = 6531431 samples = 11107.9 CDDA sectors
File Size : 5.92M
Bit Rate : 320k
Sample Encoding: MPEG audio (layer I, II or III)
Comments :
Title=Akelarrenlezeah
Artist=Goatpsalm
Album=Sonic Desterilization Of Light
Tracknumber=05/08
Year=2010
Genre=Death Industrial


[ Hidden Text ]
murayne
another link?
Daarkan
Проект Александра из Izakaron и Анатолия из Karna. Стоит заценить.
Radwind
"GOATPSALM, the jackyl-hyde quintessence, where malign currents of Dark Ambient undermine and swap desolate landscapes of Death Industrial, became aware of its potent powers in February 2009 by infesting the minds of Morkh (Sickrites, Ptomayne Ext, Izakaron), Horth (Karna), Sadist (Misanthropic Art, Baal Zebuth, Christ Invertion, Cyber Baphomet, Deathmoor, SS-18)."

Haunting
Скачать чтоле? 1488.gif Хотя никогда не был фэном Abruptum и подобных экспериментов.
Ещё один любопытный нюанс : первые и последние буквы в названиях композиций составляют слово "sathanas".
luxxul
муста скоро кому ни попадя рисовать станет
Spyart
ЦИТАТА(Haunting @ 3rd July 2012 - 16:03:23) *
Ещё один любопытный нюанс : первые и последние буквы в названиях композиций составляют слово "sathanas".

такая же фишка у Blackdeath на Saturn Sector, хоть там и название альбома целиком
raincatz
ЦИТАТА(luxxul @ 3rd July 2012 - 16:15:40) *
муста скоро кому ни попадя рисовать станет

В смысле "ни попадя"? Тусовка одна ж.
ЦИТАТА(Spyart @ 5th July 2012 - 19:12:50) *
такая же фишка у Blackdeath на Saturn Sector, хоть там и название альбома целиком

+ у Мэйнаха в лирике к Сорроу Гэлаксис.
azzzz
Архив битый, перезалейте.
sperminator
from the web
[ Hidden Text ]
Chasm
ЦИТАТА(Haunting @ 3rd July 2012 - 16:03:23) *
Хотя никогда не был фэном Abruptum и подобных экспериментов.

мне это дело больше Leviathan - A Silhouette In Splinters (плюс Дрон дум) напомнило по субстанции и эффекту.
Блин, офигенный проект, что неудивительно учитывая создателей оного. Приятно познакомился начиная с последнего альбома, не ожидал что тут так густо.
Серьёзные робяты.
ЦИТАТА(luxxul @ 3rd July 2012 - 16:15:40) *
муста скоро кому ни попадя рисовать станет

вот ляпнут же некоторые.
This is a "lo-fi" version of our main content. To view the full version with more information, formatting and images, please click here.
Invision Power Board © 2001-2019 Invision Power Services, Inc.