Help - Search - Members - Calendar
Full Version: Totenwolf - Hateful North (2007)
Metal Area - Extreme Music Portal > Releases Area / Релизы > Archive
Tiamatus


*Artist: Totenwolf
*Album: Hateful North
*Year: 2007
*Genre: Black Metal
*Country: Russian Federation
*Format: mp3@CBR320kbps
*Size: 83MB

Tracklist:
1.In Northern Darkness
2.Werewolf
3.In Fly Over The North
4.Autumn Opened Winter Gates
5.Hateful North
6.Full Moon In Fog
******************************
Total playing time: 37:13

Extended info



Input File: 06 Full Moon In Fog.mp3
Channels : 2
Sample Rate : 44100
Precision : 16-bit
Duration : 00:02:57.42 = 7824354 samples = 13306.7 CDDA sectors
File Size : 7.97M
Bit Rate : 360k
Sample Encoding: MPEG audio (layer I, II or III)
Comments :
Title=Full Moon In Fog
Artist=Totenwolf
Album=Hateful North
Tracknumber=6
Year=2007
Genre=Black Metal



[ Hidden Text ]
Constantinus I
not bad. true_black.gif
Bekkerev
В действительности, надоело слушать компьютерное качество. От него воротит уже. Ничего здесь хорошего нет.
ЦИТАТА
1.In Northern Darkness
2.Werewolf
3.In Fly Over The North
4.Autumn Opened Winter Gates
5.Hateful North
6.Full Moon In Fog
Что это? 23.gif Где-то все это уже было 21.gif
Риффы скучные и не новые. Здесь и Burzum и Darkthrone. Напомнило аналогичный шлак "Shadows Ground (Ukr) - In Eternal Coldness Of The Night", только немного разнообразней. Качество от "Darkthrone - Under A Funeral Moon". Скучно же.
Corpse_Of_The_Christ
hmm.gif надо будет их на досуге распробовать...
Ildjarn
Да, неплохо так слушается, если любишь трю... Да и инструменты вроде живые. Одно из немногих росиянских формаций, что мне понравилось за посл. время.
Fryz
ЦИТАТА(Bekkerev @ Jul 19 2012, 15:56:09) *
В действительности, надоело слушать компьютерное качество. От него воротит уже. Ничего здесь хорошего нет.
Что это? 23.gif Где-то все это уже было 21.gif
Риффы скучные и не новые. Здесь и Burzum и Darkthrone. Напомнило аналогичный шлак "Shadows Ground (Ukr) - In Eternal Coldness Of The Night", только немного разнообразней. Качество от "Darkthrone - Under A Funeral Moon". Скучно же.

Погоди, ты что, только что на Under A Funeral Moon наехал?
This is a "lo-fi" version of our main content. To view the full version with more information, formatting and images, please click here.
Invision Power Board © 2001-2024 Invision Power Services, Inc.