Help - Search - Members - Calendar
Full Version: Totenwolf - Night Path Of Pest (2012)
Metal Area - Extreme Music Portal > Releases Area / Релизы > New Releases > Low Bitrate
Tiamatus


*Artist: Totenwolf
*Album: Night Path Of Pest
*Year: 2012
*Genre: Black Metal
*Country: Russian Federation
*Format: mp3@CBR320kbps
*Size: 66MB

Tracklist:
1.Ministers Of The Black God
2.Night Path Of Pest
3.I Hate You All
4.Werewolf
5.Hateful North
6.Post Holocaust Night
******************************
Total playing time: 31:19



Extended info
Recorded in Blackout studio (Russia) 2012.
Mixed and mastered at Endarker studio (Sweden) 2012.


Input File: 06 Post Holocaust Night.mp3
Channels : 2
Sample Rate : 44100
Precision : 16-bit
Duration : 00:02:23.39 = 6323279 samples = 10753.9 CDDA sectors
File Size : 5.74M
Bit Rate : 320k
Sample Encoding: MPEG audio (layer I, II or III)
Comments :
Title=Post Holocaust Night
Artist=Totenwolf
Album=Night Path Of Pest
Tracknumber=6
Year=2012
Genre=Black Metal



[ Hidden Text ]
brth
материал унылый, звучание нормальное (банальное)
Bekkerev
Согласен 21.gif
This is a "lo-fi" version of our main content. To view the full version with more information, formatting and images, please click here.
Invision Power Board © 2001-2024 Invision Power Services, Inc.