Help - Search - Members - Calendar
Full Version: The Antiproduct - Fear Machine (2012)
Metal Area - Extreme Music Portal > Releases Area / Релизы > Archive
necroscum


*Artist: The Antiproduct
*Album: Fear Machine
*Year: 2012
*Genre: Melodic Death Metal/Metalcore
*Country: Austria
*Format: mp3@CBR320kbps
*Size: 112MB

Tracklist:
01. Intro 00:25
02. Circle Of The Lost 03:33
03. Rise & Fall 04:30
04. G.O.D. 05:22
05. Fear Machine 05:28
06. My Life: 02:10
07. Forever In Silence 05:23
08. Symptoms Of Insanity 05:08
09. Praise The Whore 05:25
10. Down 04:57
11. Thy Kingdumb 05:33
12. My Sweet Hroine 04:30
******************************
Total playing time: 52:24



Extended info



Input File: 02-Circle Of The Lost.mp3
Channels : 2
Sample Rate : 44100
Precision : 16-bit
Duration : 00:03:33.94 = 9434842 samples = 16045.6 CDDA sectors
File Size : 8.56M
Bit Rate : 320k
Sample Encoding: MPEG audio (layer I, II or III)
Comments :
Title=Circle Of The Lost
Artist=The Antiproduct
Album=Fear Machine
Tracknumber=2/12



[ Hidden Text ]
Andrew
Музыка неплоха, но вот коровый вокал...блин все портит, к сожалению!
DenisKov
шаблонный материал, шифт+дел
This is a "lo-fi" version of our main content. To view the full version with more information, formatting and images, please click here.
Invision Power Board © 2001-2024 Invision Power Services, Inc.