Help - Search - Members - Calendar
Full Version: Beastplague - Manifestation [ep] (2012)
Metal Area - Extreme Music Portal > Releases Area / Релизы > Archive
aesteticvice


*Artist: Beastplague
*Album: Manifestation [ep]
*Year: 2012
*Genre: Death Metal/Grindcore
*Country: United States
*Format: mp3@CBR320kbps
*Size: 16MB

Tracklist:
1.Lapse of Sanity 00:35
2.Crown of Scorn 01:12
3.Born of Sin 01:25
4.Drained of Life 00:45
5.Labyrinth of Torture 00:52
6.World of Filth 00:55
7.Feast of Locusts 01:00
******************************
Total playing time: 6:44

Extended info
3-Piece Grind/Death Metal band from Broward County, Florida.



Input File: 03. Born of Sin.mp3
Channels : 2
Sample Rate : 48000
Precision : 16-bit
Duration : 00:01:25.80 = 4118544 samples ~ 6435.22 CDDA sectors
File Size : 3.43M
Bit Rate : 320k
Sample Encoding: MPEG audio (layer I, II or III)
Comments :
Title=Born of Sin
Artist=Beastplague
Album=Manifestation
Tracknumber=03
Year=2012
Genre=Death Metal/Grind


[ Hidden Text ]
pinner


This is a "lo-fi" version of our main content. To view the full version with more information, formatting and images, please click here.
Invision Power Board © 2001-2024 Invision Power Services, Inc.