*Artist: Subscale
*Album: Fictional Constructs [ep]
*Year: 2012
*Genre: Experimental Metalcore/Groove Metal/Djent
*Country: Croatia
*Format: mp3@CBR320kbps
*Size: 54MB

Tracklist:
01. Antecedent 04:36
02. Fictional Constructs 03:55
03. Realization 05:45
04. Antecedent_v1.2 (Remix By Kodin) 04:04
05. Fictional Constructs_v2.0 (Electrocution Remix By Deimos) 03:26
******************************
Total playing time: 21:46



Extended info



Input File: 01. Antecedent.mp3
Channels : 2
Sample Rate : 44100
Precision : 16-bit
Duration : 00:04:36.87 = 12210143 samples = 20765.5 CDDA sectors
File Size : 12.3M
Bit Rate : 357k
Sample Encoding: MPEG audio (layer I, II or III)
Comments :
Title=Antecedent
Artist=Subscale
Album=Fictional Constructs EP
Tracknumber=1
Year=2012
Genre=Metal



[ Hidden Text ]