Help - Search - Members - Calendar
Full Version: Votnut - Votnut [ep] (2012)
Metal Area - Extreme Music Portal > Releases Area / Релизы > Archive
necroscum


*Artist: Votnut
*Album: Votnut [ep]
*Year: 2012
*Genre: Blackened Grindcore
*Country: United States
*Format: mp3@CBR320kbps
*Size: 19MB

Tracklist:
01. Cornered 00:55
02. All Is Cold 01:37
03. Wallow Within 02:03
04. World We Kill 01:32
05. Vultures Prey 01:33
06. Amongst The Dead 01:10
******************************
Total playing time: 8:50



Extended info
Released by Antithetic Records/Anti Human Awakening Rec.


Input File: 02 All Is Cold.mp3
Channels : 2
Sample Rate : 48000
Precision : 16-bit
Duration : 00:01:37.37 = 4673664 samples ~ 7302.6 CDDA sectors
File Size : 4.01M
Bit Rate : 330k
Sample Encoding: MPEG audio (layer I, II or III)
Comments :
Title=All Is Cold
Artist=Votnut
Album=Votnut EP
Tracknumber=2/6
Year=2012



[ Hidden Text ]
pinner
Could someone reupload this??
This is a "lo-fi" version of our main content. To view the full version with more information, formatting and images, please click here.
Invision Power Board © 2001-2024 Invision Power Services, Inc.