Help - Search - Members - Calendar
Full Version: Musashi - Yamato (2000)
Metal Area - Extreme Music Portal > Releases Area / Релизы > Archive
amebix


*Artist: Musashi
*Album: Yamato
*Year: 2000
*Genre: Progressive/Folk Metal
*Country: Japan
*Format: mp3@CBR320kbps
*Size: 145MB

Tracklist:
01. Akatsuki 05:03
02. Yagyu-Gaiden 05:14
03. Kuroi-Tsuki 04:57
04. Seiya 06:30
05. Hishou 03:44
06. Uneri 08:02
07. Akebono 08:02
08. Ryusei 04:35
09. Kurenai 05:09
10. Yamato Part 1 03:21
11. Yamato Part 2 03:39
12. Yamato Part 3 02:57
13. Yamato Part 4 03:54
******************************
Total playing time: 1:05:07

Extended info



Input File: 05 - Hishou.mp3
Channels : 2
Sample Rate : 44100
Precision : 16-bit
Duration : 00:03:44.24 = 9888896 samples = 16817.9 CDDA sectors
File Size : 10.6M
Bit Rate : 377k
Sample Encoding: MPEG audio (layer I, II or III)
Comments :
Title=Hishou
Artist=MUSASHI
Album=Yamato
Tracknumber=5
Year=2000



[ Hidden Text ]
FunZombie
Обновил 320

[ Hidden Text ]
This is a "lo-fi" version of our main content. To view the full version with more information, formatting and images, please click here.
Invision Power Board © 2001-2024 Invision Power Services, Inc.