Help - Search - Members - Calendar
Full Version: Menace - Heavy Lethal (2012)
Metal Area - Extreme Music Portal > Releases Area / Релизы > Archive
necroscum


*Artist: Menace
*Album: Heavy Lethal
*Year: 2012
*Genre: Heavy/Speed Metal
*Country: Italy
*Format: mp3@CBR320kbps
*Size: 96MB

Tracklist:
01. Heavy Lethal 02:37
02. She-Spider 04:19
03. Godzilla Raids Again 05:23
04. (665) Hell Neighbour 03:11
05. Crabro Attack 03:24
06. Duke Of Death 04:32
07. Straight To The Grave 03:25
08. Double Trouble 04:08
09. Steel Rain 04:25
******************************
Total playing time: 35:24



Extended info



Input File: 02. She-Spider.mp3
Channels : 2
Sample Rate : 44100
Precision : 16-bit
Duration : 00:04:19.89 = 11461281 samples = 19492 CDDA sectors
File Size : 11.8M
Bit Rate : 365k
Sample Encoding: MPEG audio (layer I, II or III)
Comments :
Title=She-Spider
Artist=Menace
Album=Heavy Lethal
Tracknumber=2
Year=2012
Genre=Heavy Metal



[ Hidden Text ]
Militia
12 Mirrors / 320 kbps / 90 MB

[ Hidden Text ]
vosmidesijatye
Такой бриллиантище лежит, а ни одного комментария. Ну разве можно так? Ведь альбом то прекрасен и заслуживает хвалебных слов в свой адрес. Жгучие мелодии, наикайфовейший вокал, распиливающая атмосфера - вот немногие его составляющие, за которые сразу цепляется слух. Альбом короткий, не успевает наскучить, так что это в плюс.

В общем, рекомендуется крайне любителям отличной музыки!
Bloodline Christian
Недоделанный Judas Priest какой-то. Послушать разок и забыть... увы!
This is a "lo-fi" version of our main content. To view the full version with more information, formatting and images, please click here.
Invision Power Board © 2001-2023 Invision Power Services, Inc.