Help - Search - Members - Calendar
Full Version: The Nefilim - Zoon (1996)
Metal Area - Extreme Music Portal > Releases Area / Релизы > New Releases > Unformat R:
varyag


*Artist: The Nefilim
*Album: Zoon
*Year: 1996
*Genre: Industrial Death/Gothic Metal
*Country: United Kingdom
*Format: mp3@CBR320kbps
*Size: 110MB

Tracklist:
1. Still Life
2. Xodus
3. Shine
4. Penetration
5. Melt (The Catching Of The Butterfly)
6. Venus Decomposing
7. Pazuzu (Black Rain)
8. Zoon (Parts 1&2) (Saturation)
9. Zoon (Part 3) (Wake World)
10. Coma
******************************
Total playing time: 49:02



Extended info
Password: metalarea.org

Вокалист Карл МакКой собрал эту команду после распада Fields of the Nephilim


Input File: 04-Penetration.mp3
Channels : 2
Sample Rate : 44100
Precision : 16-bit
Duration : 00:03:31.60 = 9331560 samples = 15870 CDDA sectors
File Size : 8.46M
Bit Rate : 320k
Sample Encoding: MPEG audio (layer I, II or III)
Comments :
Title=Penetration
Artist=The Nefilim
Album=Zoon
Tracknumber=04
Year=1996
Genre=Gothic Death



[ Hidden Text ]
BladeOvDarkness
This one is Industrial/Gothic Metal and falls right in the ''format'' area: http://www.metal-archives.com/bands/Nefilim/10059
varyag
Поправил тег стиля, можно перенести в формат =)
Panacea
CBR 320 kbps
[ Hidden Text ]
metala
This is actually more metal than 90% of the music that was coming out at the time... Way more metal than Annihilator or even Overkill from the 90's, for example
This is a "lo-fi" version of our main content. To view the full version with more information, formatting and images, please click here.
Invision Power Board © 2001-2019 Invision Power Services, Inc.