Help - Search - Members - Calendar
Full Version: Bloody Roots - Az Ígéretek Földjén (2012)
Metal Area - Extreme Music Portal > Releases Area / Релизы > Archive
aesteticvice


*Artist: Bloody Roots
*Album: Az Ígéretek Földjén
*Year: 2012
*Genre: Thrash Metal
*Country: Hungary
*Format: mp3@CBR320kbps
*Size: 113MB

Tracklist:
01. Reménység Templom
02. Hazugságok Oltárán
03. Hozd El Uram
04. Vérből – Vérbe
05. Népek útján
06. Vérző Népek Tavasza
07. Ígéretek Földjén
08. Fekete átok Foglya
09. Vezessetek útra
10. Jöjj Menedék
11. Felesküdött Az ég…
Bónusz:
12. Kiválasztott (Moby Dick cover)
13. Refuse Resist (Sepultura cover)
14. Roots Bloody Roots (Sepultura cover)
******************************
Total playing time: 47:23



Extended info
Бошкотрясный трэш с элементами техникала и эпика. Оченно крутой альбом получился.
Schmiedl Tamás - Vocals, Guitar (Moby Dick (Hun))
Schmiedl Balázs - Guitar(Amadea)
Horváth Tamás - Bass(Cavum)
Tarcsai Ádám - Drums
Guest:
Vörös Attila - gitár (Nevermore)
Ficzek András - ének, vokál (Dalriada)
Szuna Péter - basszusgitár (K3)




Input File: 02. Hazugsбgok oltбrбn.mp3
Channels : 2
Sample Rate : 44100
Precision : 16-bit
Duration : 00:03:51.00 = 10187056 samples = 17324.9 CDDA sectors
File Size : 9.24M
Bit Rate : 320k
Sample Encoding: MPEG audio (layer I, II or III)
Comments :
Title=HazugsГЎgok oltГЎrГЎn
Artist=Bloody Roots
Album=Az ígéretek földjén
Tracknumber=02
Year=2012
Genre=Technical Thrash Metal



[ Hidden Text ]
aesteticvice
А по моему ваще крутень, уникальный трэш, комбинация олдскульного бошкотряса и кача, эпико-фолковых интонаций в мелодиях и хоровых припевах, плюс ко всему шикарная игра с клевыми солягами и техникал фишками. Смачно и не стандартно.
з.ы. по мне единственно что бонусные кавера смотрятся несколько выходя из концепта самого альбома, ну это не фатально
toly1917
эстетичному 9.gif ,было б на инглише-придраться не к чему smile1.gif
cesar
Венгерский, наоборот, придаёт колориту ещё.

aesteticvice
ага-ага
Genuine Thrashiac
also them Bloody Roots - Isten Kezében (2010)
kastrup
Please re-up 22.gif 22.gif
Borderline1991
[ Hidden Text ]
kastrup
Cool rarity ! 11.gif 11.gif 11.gif

QUOTE(Borderline1991 @ Jun 12 2021, 03:41:47) *

This is a "lo-fi" version of our main content. To view the full version with more information, formatting and images, please click here.
Invision Power Board © 2001-2021 Invision Power Services, Inc.