Help - Search - Members - Calendar
Full Version: Nightrite - Black Moon Rituals (2013)
Metal Area - Extreme Music Portal > Releases Area / Релизы > Archive
Абигор


*Artist: Nightrite
*Album: Black Moon Rituals
*Year: 2013
*Genre: Raw Occult Black Metal
*Country: Ukraine
*Format: mp3@CBR320kbps
*Size: 68MB

Tracklist:
01. Black Moon Rituals 03:32
02. Witchery 04:06
03. Sacrifice In The Name Of Satan 03:41
04. Qayin Messor 04:02
05. Flere Calvaria 04:29
06. Infernal Catharsis 03:56
07. Naam-Kha-Zod 04:30
08. Outro 02:18
******************************
Total playing time: 30:35

Extended info
Released by Parasyte Curse

Tape ltd. 99 copies

Кассета доступна для заказа тут: http://parasytecurse.com/


Input File: 01 - Black Moon Rituals.mp3
Channels : 2
Sample Rate : 44100
Precision : 16-bit
Duration : 00:03:32.14 = 9355506 samples = 15910.7 CDDA sectors
File Size : 8.49M
Bit Rate : 320k
Sample Encoding: MPEG audio (layer I, II or III)
Comments :
Title=Black Moon Rituals
Artist=Nightrite
Album=Black Moon Rituals
Tracknumber=01
Year=2013
Genre=Black Metal



[ Hidden Text ]
Bekkerev
ЦИТАТА
Raw Occult Black Metal

22.gif Что это за стили такие?
Лирика типичная 21.gif глупая, христианская. Жертвоприношения Дьяволу и т.д.
Жужжит что-то, но ничего интересного не услышал.
infiltrator
Как-то пропали эти украинцы из моего поля зрения. Были видимо у них на то причины, поскольку группа очень долго не могла найти издающий лейбл. И, видимо, вынужденная пауза пошла банде на пользу. Потому что материал на пластинке представлен просто-таки убойный. Хороший блек метал приправленный клавишами и бластбитами. То, что доктор прописал. Бодрит неимоверно.
Абигор
Полностью солидарен с инфильтратором - однозначно заслуживающий внимания материал. Всё в тему. 20.gif
BioMax
dsp
В описании на ютубе просят поддержать банду покупкой диска. Кто издатель?
Fess
Абигор, прав, материал не плохой и послушать альбом есть смысл. Хоть я и не проникся им до конца, но всё же, интересная штучка.

ЦИТАТА(Bekkerev @ Feb 11 2013, 17:26:31) *
22.gif Что это за стили такие?
Лирика типичная 21.gif глупая, христианская. Жертвоприношения Дьяволу и т.д.
Жужжит что-то, но ничего интересного не услышал.

А ты, как обычно в своём репертуаре... 21.gif Перлы один за другим отжигаешь. normal_Homerdisgust3.png
Necromag
Колдовство переплетённое в Black Metal, что собственно этот стиль им и делает. true_black.gif
shitsic
Не шедевр,но за такой музон не стыдно за своих соотечественников.
A.R.
Неплохой альбом.

А контактов группы ни у кого нет?
satanist666
NIGHTRITE:


HEXENCAVE Productions:
This is a "lo-fi" version of our main content. To view the full version with more information, formatting and images, please click here.
Invision Power Board © 2001-2021 Invision Power Services, Inc.