Help - Search - Members - Calendar
Full Version: Sacrario - Catastrophic Eyes (2008)
Metal Area - Extreme Music Portal > Releases Area / Релизы > Archive
necroscum


*Artist: Sacrario
*Album: Catastrophic Eyes
*Year: 2008
*Genre: Thrash Metal
*Country: Brazil
*Format: mp3@CBR320kbps
*Size: 139MB

Tracklist:
01. Catastrophic Eyes 05:41
02. Empire Of Lies 04:23
03. Drug Addiction 04:38
04. The Witness 04:23
05. Wise Words 05:10
06. To Die Is The End 04:53
07. Lethal Step 05:46
08. Wasted Land 04:20
09. Extreme Unction 03:34
10. Into The Dark 05:12
11. Divine Existence 04:02
12. Spiritual Lobotomy 03:06
13. Septicemia 04:34
******************************
Total playing time: 59:42



Extended info



Input File: 02. Empire Of Lies.mp3
Channels : 2
Sample Rate : 44100
Precision : 16-bit
Duration : 00:04:23.89 = 11637593 samples = 19791.8 CDDA sectors
File Size : 10.6M
Bit Rate : 320k
Sample Encoding: MPEG audio (layer I, II or III)
Comments :
Title=Empire Of Lies
Artist=Sacrario
Album=Catastrophic Eyes
Tracknumber=02
Year=2008
Genre=Death/Thrash Metal



[ Hidden Text ]
Golfzilla
The link is dead, can anyone replace it?
vosmidesijatye
@320

[ Hidden Text ]
This is a "lo-fi" version of our main content. To view the full version with more information, formatting and images, please click here.
Invision Power Board © 2001-2020 Invision Power Services, Inc.