Help - Search - Members - Calendar
Full Version: Light? - Мой Рассвет в Январе (2013)
Metal Area - Extreme Music Portal > Releases Area / Релизы > New Releases > Unformat R:
frost192


*Artist: Light?
*Album: Мой Рассвет в Январе
*Year: 2013
*Genre: Ambient/Acoustic
*Country: Russian Federation
*Format: mp3@CBR320kbps
*Size: 335MB

Tracklist:
1. Слышу голос твой...*
2. Мой рассвет в Январе
3. Somewhere...Grey
4. 1204 (В прошлом...) Хроники Пустоты
5. На шипах сомнений Мы танцуем
6. В сиянии ее Я замерзаю
7. Бесконечно один (декабрь 2012)
8. Холод (бонус-трек)
******************************
Total playing time: 58:46

Extended info
Весьма достойный one-man project замечательного музыканта из провинциального города Данилов что под Ярославлем.
Предыдущий альбом был очень популярен в своих кругах!
А этот прямо полет души на тонких крыльях акустики!!!


Input File: 02. Мой рассвет в Январе (16bit).mp3
Channels : 2
Sample Rate : 44100
Precision : 16-bit
Duration : 00:09:49.22 = 25984778 samples = 44191.8 CDDA sectors
File Size : 24.2M
Bit Rate : 329k
Sample Encoding: MPEG audio (layer I, II or III)
Comments :
Title=Ìîé ðàññâåò â ßíâàðå
Artist=Light?
Album=Ìîé ðàññâåò â ßíâàðå
Tracknumber=2/8



[ Hidden Text ]
frost192
Отличная атмосфера!
shial
ЦИТАТА
*Формат: mp3@CBR320kbps
*Размер: 335MB
Полное время альбома: 58:46

13.gif что там в архиве такое тяжелое?
frost192
ЦИТАТА(shial @ Feb 27 2013, 08:22:41) *
13.gif что там в архиве такое тяжелое?

Сканы
Old Vyaine
QUOTE(frost192 @ 26th February 2013 - 22:21:20) *
Light?


Свет? Пивка принеси, что-то мне [мат->бан]

Попробую, спасибо, хотя столько сканов, конечно, не айс.

И я ненавижу январи.
blackdeath
QUOTE(frost192 @ Feb 26 2013, 19:21:20) *


Thanks but +300 MB just for covers in TIFF format?!!! that's a little bit ridiculous 1488.gif you could have made that a separate download.
frost192
ЦИТАТА(blackdeath @ Feb 27 2013, 20:15:22) *
Thanks but +300 MB just for covers in TIFF format?!!! that's a little bit ridiculous 1488.gif you could have made that a separate download.


Is it Too hard to download?
Three minutes - one cigarette - or good time to make a coffee
It's easy - don't you like to wait?
This is an author's will - tiff format 300 Mb - let it be!
shadow666
ЦИТАТА(frost192 @ Feb 27 2013, 19:52:41) *
Is it Too hard to download?
Three minutes - one cigarette - or good time to make a coffee

это ж 100 мб в минуту...не у всех такой быстрый инет smile1.gif думаю даже ДАЛЕКО не у всех
Infidel
Релиз достаточно годный, только непонятно, как мечтательная, светлая и местами откровенно оптимистичная музыка соотносится с угрюмым суицидальным оформлением.
shadow666
кстати а по обложке название группы "light?!" а не просто с вопросительным знаком...неувязочка выходит)
Old Vyaine
Местами неплохо, но в целом слишком аляповато. Не моё.
This is a "lo-fi" version of our main content. To view the full version with more information, formatting and images, please click here.
Invision Power Board © 2001-2020 Invision Power Services, Inc.