Help - Search - Members - Calendar
Full Version: Draugurinn - Móðuharðindin (2012)
Metal Area - Extreme Music Portal > Releases Area / Релизы > New Releases > Unformat R:
nannoblack


*Artist: Draugurinn
*Album: Móðuharðindin
*Year: 2012
*Genre: Dark Ritual Ambient
*Country: Sweden
*Format: mp3@CBR320kbps
*Size: 130MB

Tracklist:
1. Úr Minni Eldgjáar
2. Vaknar Reiði Lakagígs
3. Hún kallar á Surt Og Syni Hans
4. Hún kallar á Loga Og Loka, Heiðr Og Systur Hennar
5. Þau Skapa úr Eldinum, Kötlu Og Heklu
6. Þau Skapa úr Eldinum, Kulda Og Dauða
7. Móðuhardindin
******************************
Total playing time: 57:12



Extended info



Input File: 07. MoМЃГ°uhardindin.mp3
Channels : 2
Sample Rate : 44100
Precision : 16-bit
Duration : 00:02:51.54 = 7564870 samples = 12865.4 CDDA sectors
File Size : 6.89M
Bit Rate : 321k
Sample Encoding: MPEG audio (layer I, II or III)
Comments :
Title=MoМЃГ°uhardindin
Artist=Draugurinn
Album=MoМЃГ°uharГ°indin
Tracknumber=7
Year=2012
Genre=Dark Ambient



[ Hidden Text ]
tormoz
полагаю, альбом посвящен вот этой репетиции рагнарока: http://en.wikipedia.org/wiki/M%C3%B3%C3%B0uhar%C3%B0indin
This is a "lo-fi" version of our main content. To view the full version with more information, formatting and images, please click here.
Invision Power Board © 2001-2020 Invision Power Services, Inc.