Help - Search - Members - Calendar
Full Version: Spiritual Front - Open Wounds (2013)
Metal Area - Extreme Music Portal > Releases Area / Релизы > New Releases > Unformat R:
Nachtmahr


*Artist: Spiritual Front
*Album: Open Wounds
*Year: 2013
*Genre: Neofolk, Nihilistic Suicide Pop
*Country: Italy
*Format: mp3@CBR320kbps
*Size: 202MB

Tracklist:
CD 1 :
1. Soulgambler 04:06
2. Hey Boy 03:10
3. Song For The Old Man 05:55
4. The Devourment Of The Will 04:01
5. Delation I Live Through You 04:03
6. Autopsy Of A Love 04:15
7. We Could Fail Again 03:17
8. Nectar On Your Lips 04:40
9. A Long Summer For The Dog Of Satan 03:50
10. Eucharist Of Sodomy 05:19

CD 2 :
1. Autopsy Of A Denied Love 04:12
2. The Indulgent Waltz 05:59
3. Soulgambler Theme 03:21
4. The Bent Invocation 04:40
5. Nectar Like Lips 03:22
6. Letter From Guyana 04:22
7. Hey Frail Boy 03:58
8. The Forth Summer 04:21
9. We Could Lie Again 04:31
10. Purple Cross House 03:48
11. Promise Like Bullet 05:04
******************************
Total playing time: 1:30:14

Extended info


Technical info

Input File: 1-03 Song for the Old Man.mp3
Channels : 2
Sample Rate : 44100
Precision : 16-bit
Duration : 00:05:55.90 = 15695278 samples = 26692.6 CDDA sectors
File Size : 14.3M
Bit Rate : 322k
Sample Encoding: MPEG audio (layer I, II or III)
Comments :
Title=Song for the Old Man
Artist=Spiritual Front
Album=Open Wounds
Tracknumber=3/10
Year=2013
Genre=Suicide Pop
Discnumber=1/2



[ Hidden Text ]
ofuroboritch
ЦИТАТА(Nachtmahr @ 4th May 2013 - 08:41:57) *
Nihilistic Suicide Pop

Ы hmm.gif
POMAHOB
Как вы полагаете, что будет, если мешать в один коктейль neofolk , вальс, танго, кабаре, электронику и атмосферу Дикого Запада? (с) Ласты
собственно, как я полагаю, замысловатый тэг оттуда же. во всяком случае кломпозиция в клипе показалась очень интересной, необычно звучит. пожалуй стяну альбом.
Sangre
Люблю этих наци-геев. Thanks.
POMAHOB
первый диск шикарен, второй местами неплох, но все же мало что оттуда запомнилось. в общем, спасибо релизеру))
Dragonballz
Отличный альбом!
20.gif
fylopaloma
[ Hidden Text ]
This is a "lo-fi" version of our main content. To view the full version with more information, formatting and images, please click here.
Invision Power Board © 2001-2020 Invision Power Services, Inc.