Help - Search - Members - Calendar
Full Version: Lebensnacht - Luonnon Voima (2013)
Metal Area - Extreme Music Portal > Releases Area / Релизы > Archive
necroscum


*Artist: Lebensnacht
*Album: Luonnon Voima
*Year: 2013
*Genre: Black Metal
*Country: Germany
*Format: mp3@CBR320kbps
*Size: 143MB

Tracklist:
01. Als Der Mensch Das Leid Erfand 02:29
02. Innenleben In Winternacht 06:27
03. Kalter Tod 04:50
04. Luonnon Voima 03:35
05. Sommernachtsgedanken 10:12
06. Welt In Flammen 05:54
07. Und Was Bleibt Ist Die Natur 13:43
08. OH (Bonus Track) 00:33
******************************
Total playing time: 47:43



Extended info


Input File: 05. Sommernachtsgedanken.mp3
Channels : 2
Sample Rate : 44100
Precision : 16-bit
Duration : 00:10:12.16 = 26996168 samples = 45911.9 CDDA sectors
File Size : 24.7M
Bit Rate : 323k
Sample Encoding: MPEG audio (layer I, II or III)
Comments :
Title=Sommernachtsgedanken
Artist=Lebensnacht
Album=Luonnon Voima (NP042)
Tracknumber=5
Year=2013



[ Hidden Text ]
varlam4
Перезалейте плз на яндекс
vasiljev_sergej
[ Hidden Text ]
Borderline1991
[ Hidden Text ]
satanist666
LEBENSNACHT:


NATURMACHT Productions:
This is a "lo-fi" version of our main content. To view the full version with more information, formatting and images, please click here.
Invision Power Board © 2001-2021 Invision Power Services, Inc.