Help - Search - Members - Calendar
Full Version: Chaostar - Anomima (2013)
Metal Area - Extreme Music Portal > Releases Area / Релизы > New Releases > Unformat R:
paganheart


*Artist: Chaostar
*Album: Anomima
*Year: 2013
*Genre: Darkwave/Neoclassical
*Country: Greece
*Format: mp3@CBR320kbps
*Size: 123MB

Tracklist:
01. 間 (MA)
02. Un pensiero per il destino
03. Sorrow Descending
04. Medea
05. Dilate the Time
06. Les rminiscences extatiques
07. Truth Will Prevail
08. Όμορφη Kόρη
09. The Charmer
10. L'ide fixe
11. Misery’s King
12. Canticles 2 (Bonus Track)
******************************
Total playing time: 56:03

Extended info
Christos Antoniou Orchestrations, Keyboards
Fotis Benardo Drums, Percussion
George Diamantopoulos Bendir, Kaval, Sarod, Yayli tanbur
Charalampos Paritsis Violin (electric)
Androniki Skoula Vocals
John Thermos Keyboards


Technical info

Input File: Chaostar - Anonima (Limited Edition) (2).mp3
Channels : 2
Sample Rate : 44100
Precision : 16-bit
Duration : 00:04:29.77 = 11896769 samples = 20232.6 CDDA sectors
File Size : 10.8M
Bit Rate : 320k
Sample Encoding: MPEG audio (layer I, II or III)
Comments :
Title=Un Pensiero Per Il Destino
Artist=Chaostar
Album=Anonima (Limited Edition)
Tracknumber=2
Year=2013

[ Hidden Text ]
BlackTroll
вот спасибо smile1.gif А лося нет, случайно? smile3.gif
Witchlord
На рутрекере лось есть.
BlackTroll
ЦИТАТА(Witchlord @ 16th May 2013 - 18:33:15) *
На рутрекере лось есть.

Уже сам нашел 9.gif
POMAHOB
ЦИТАТА(paganheart @ 16th May 2013 - 16:13:11) *
01. 間 (MA)

даже в Греции знают про металарею crazy.gif
пойду качать, спасибо)
Witchlord
ЦИТАТА(BlackTroll @ May 16 2013, 16:36:29) *
Уже сам нашел 9.gif

Да, мой пост был не очень полезен, поскольку все знают о рутрекере)
satanath
хорошая работа, вот таким и должен быть дарквэйв - без попсовой электроники! 12 трек и концовка 7-го только разочаровали.
POMAHOB
концовка 7 композиции - мощный и неожиданный ход от греков)
кому скажи "хаостар и дабстеп" - засмеют))
6666666
У меня трек-лист файла расходится с трек-листом заявленным в шапке.
P.S. А, нет, это бонус-трек на 4 место запрыгнул.
P.P.S. А, нет, всё-таки расходится.
paganheart
ЦИТАТА
А, нет, всё-таки расходится.
В чем, интересно? В том, что 8й трек обозначен в английской транскрипции? 1488.gif
6666666
ЦИТАТА(paganheart @ May 19 2013, 01:28:51) *
В чем, интересно?

Местами поменяны.
Disillusion
И здесь дабстеп... 22.gif
frost192
О как...внезапно...
pray.gif
paganheart
ЦИТАТА
Местами поменяны.
Еще раз сверил с архивами, треклистом в шапке и в плеере при воспризведении - всё соответствует. 17.gif
MikkeFFF
Пока одни метал-формации растрачивают свой злобный задор в попытках найти новое звучание, а другие бередят старое, переклеивая по кускам то так, то эдак, талантливые именно в композиторском плане музыканты, находят и - если повезёт - доносят до слушателя просто качественные и интересные музыкальные полотна.
Эта работа Кристоса со товарищи относится в моём представлении именно к таким. Приглашённые музыканты довершают задуманное, радуя то акустическим голосом струнных (виолончели, индийского сарода, да турецкого яйлы-танбура) и духовых (кавал), то сильными голосами. Живая перкуссия добавляет тембровых оттенков в общую полифонию.
На мой взгляд, эксперименты с дабстэпом на " Truth Will Prevail" и лёгким притрансованом рэйвом "Canticles 2" удались. Причиной тому, думаю, – прогрессирующее чувство вкуса самого Кристоса.
Я вот, к примеру, недолюбливаю весёлую музыку. В идеале, даже если композиции содержат немного света, он должен быть тихим, приглушенным для гармоничного слияния с сумеречной в целом обстановкой, как грустная улыбка при воспоминании о чём-то хорошем про умершего уже человека.
Это мне и понравилось в «Anomima». Талантливо сочинено и со вкусом воплощено.
Un4given
Truth Will Prevail - pray.gif
Есть и другие крутые вещи, но в целом слабовато, и вообще хотелось единой концепции и монолитности как на первых двух альбомах. Совсем не понравились трек на греческом и The Charmer.
Мелодия в середине L'idee fixe сильно напомнила саундтрек к какой-то игре. Скорее всего обе стороны стырили ее у кого-то еще.
hammer
А чего не указал ,что в начале Medea текст читает Девид Винсент,а в Dilate the Time поет Фернандо Рибейра.
atreyu001
ЦИТАТА(hammer @ Sep 22 2013, 19:58:37) *
А чего не указал ,что в начале Medea текст читает Девид Винсент,а в Dilate the Time поет Фернандо Рибейра.

Дык осталбное всё братья грим
rotting14
Можно ссылочки обновить,можно ядиск...
vosmidesijatye
@320

[ Hidden Text ]

Премьера нового трэка:

6666666
ЦИТАТА(atreyu001 @ 22nd September 2013 - 22:02:16) *
Дык осталбное всё братья грим

Что?
This is a "lo-fi" version of our main content. To view the full version with more information, formatting and images, please click here.
Invision Power Board © 2001-2019 Invision Power Services, Inc.