Help - Search - Members - Calendar
Full Version: Raison D'être - Prospectus I (1993)
Metal Area - Extreme Music Portal > Releases Area / Релизы > New Releases > Unformat R:
Haunting


*Artist: Raison D'être
*Album: Prospectus I (Redux Version 2013)
*Year: 1993
*Genre: Dark Ambient
*Country: Sweden
*Format: mp3@CBR320kbps
*Size: 304MB

Tracklist:
1. Katharsis 06:29
2. Ordeal in Chapel 05:46
3. Ascension De Profundis 06:49
4. Mourning 04:32
5. Mesmerized In Sorrow 05:34
6. Cenotaphium 08:09
7. Synopsis 05:57
8. Anathema / Apotheosis 04:29
9. Penumbra 07:10
10. Cantharsis 03:00
11. Chalixtins 05:26
12. Decalogue 06:08
13. Out Of the Depths... 05:31
14. Enshrouding 06:21
15. Inquest 03:21
16. In Extremis 05:27
17. Decay II 06:43
18. Dissection III 07:09
19. The Revival 06:10
20. Decay I 07:53
21. Katharsis (early version) 06:29
22. Penumbra (alternative end part) 03:25
******************************
Total playing time: 2:07:58

Extended info
webshop.raison-detre.info
Сканы в комплекте.


Technical info

Input File: 02 - Ordeal In Chapel.mp3
Channels : 2
Sample Rate : 44100
Precision : 16-bit
Duration : 00:05:46.26 = 15270154 samples = 25969.6 CDDA sectors
File Size : 13.9M
Bit Rate : 321k
Sample Encoding: MPEG audio (layer I, II or III)
Comments :
Title=Ordeal In Chapel
Artist=Raison D'ГЄtre
Album=Prospectus I (Redux)
Tracknumber=02/22
Year=2013
Genre=Dark Ambient/Industrial
Discnumber=1



[ Hidden Text ]
kefka
Mirror
320Kbit/s - 299 MB
[ Hidden Text ]
This is a "lo-fi" version of our main content. To view the full version with more information, formatting and images, please click here.
Invision Power Board © 2001-2020 Invision Power Services, Inc.