Help - Search - Members - Calendar
Full Version: Drowlich - Benighted Illumination [demo] (2010)
Metal Area - Extreme Music Portal > Releases Area / Релизы > New Releases > Low Bitrate
norfin


*Artist: Drowlich
*Album: Benighted Illumination [demo]
*Year: 2010
*Genre: Symphonic/Melodic Dark/Black Metal
*Country: Finland
*Format: mp3@CBR320kbps
*Size: 19MB

Tracklist:
1. Harbinger of Demise 03:52
2. Oblivion's Prison 04:43
******************************
Total playing time: 8:35



Extended info
Убийственно-мелодичное demo! Единственные, кто мне напомнил о неподражаемом Nexus Polaris!

Killer-melodic demo! The only ones who reminded me of the inimitable Nexus Polaris!


Technical info

Input File: Drowlich-02 - Oblivion\\\'s Prison.mp3
Channels : 2
Sample Rate : 44100
Precision : 16-bit
Duration : 00:04:43.12 = 12485504 samples = 21233.9 CDDA sectors
File Size : 11.3M
Bit Rate : 320k
Sample Encoding: MPEG audio (layer I, II or III)
Comments :
Title=02 - Oblivion's Prison
Artist=Drowlich
Album=2010 - Benighted Illumination (demo)
Tracknumber=2
Genre=Symphonic/Melodic Dark/Black metal



[ Hidden Text ]
Ludwig Hagen
Why its here in "Low Bitrate" ?? The Files have 320 kbs !

Very nice Sympho Black !
This is a "lo-fi" version of our main content. To view the full version with more information, formatting and images, please click here.
Invision Power Board © 2001-2024 Invision Power Services, Inc.