Help - Search - Members - Calendar
Full Version: Gorthaur's Wrath - War For Heaven (2013)
Metal Area - Extreme Music Portal > Releases Area / Релизы > Archive
aesteticvice


*Artist: Gorthaur's Wrath
*Album: War For Heaven
*Year: 2013
*Genre: Melodic Black/Death Metal
*Country: Croatia
*Format: mp3@CBR320kbps
*Size: 128MB

Tracklist:
01. The Great Creation
02. Übermensch
03. The Lucifer Rebellion
04. Birth Of Sin
05. Inverted Spirits
06. Coming Down to Earth
07. 1000 Years
08. The Son Of Belial
09. Dawn Of A New Race
10. Supreme Illusion
11. Faithfall
******************************
Total playing time: 54:49




Extended info
Morbid - Vocals & Lyrics
Ross Feratu - Lead, Rhythm & Acoustic Guitars
Count van Conrad - Rhythm Guitars
Māra - Bass & Keyboards
Kraven - Drums
Guest studio:
Christian Bass (HEAVEN SHALL BURN, DER WEG EINER FREIHEIT, NIGHT IN GALES and WHITE EYES) - Drums
Jonas Baumgartl (ex-Obscura) - Drums



Technical info

Input File: 03. The Lucifer Rebellion.mp3
Channels : 2
Sample Rate : 44100
Precision : 16-bit
Duration : 00:05:52.45 = 15543045 samples = 26433.8 CDDA sectors
File Size : 14.1M
Bit Rate : 321k
Sample Encoding: MPEG audio (layer I, II or III)
Comments :
Title=The Lucifer Rebellion
Artist=Gorthaur's Wrath
Album=War For Heaven
Tracknumber=3/11
Year=2013


[ Hidden Text ]
[ Hidden Text ]
deathzetk
весьма впечатлило
satanath
Added links by drbutcher
neoatheist
Превосходно! Радует, что достойные преемники великих Dissection не перевелись!
MeatWolf
Мелодэт с хэви. Или хэви с мелодэтом? Послушать было интересно, но в рамках каждого трека слишком много повторяющихся фрагментов.
aesteticvice
ЦИТАТА(MeatWolf @ Sep 11 2013, 07:48:35) *
Мелодэт с хэви. Или хэви с мелодэтом?

1488.gif "Ровестник" в детстве читал?
http://s4.uploads.ru/K31bh.jpg
V1nterch
ЦИТАТА(neoatheist @ Sep 11 2013, 11:28:26) *
преемники Dissection

Не услышал ничего общего.
Скорее правда
ЦИТАТА(MeatWolf @ Sep 11 2013, 11:48:35) *
Мелодэт с хэви.

voldemar13
ЦИТАТА(aesteticvice @ Sep 11 2013, 12:00:36) *
1488.gif "Ровестник" в детстве читал?
http://s4.uploads.ru/K31bh.jpg

Крутоsmile1.gif Блэк-металл - "супертяжелый блюз") Буду теперь только так называть)
"А что ты слушаешь?" - "Супертяжелый блюз, повествующий о противлении злу насилием и еще большим злом" - "Ооо, да ты эстет!"
DenisKov
Скука ужасная, после трех треков стало крутить желудок.
neoatheist
ЦИТАТА(MeatWolf @ Sep 11 2013, 11:48:35) *
Мелодэт с хэви. Или хэви с мелодэтом?


Кста да. При внимательном прослушивании блэка почти на выявил... smile2.gif
namhoangk4d
ЦИТАТА(aesteticvice @ Sep 6 2013, 15:32:35) *
*Album: War For Heaven

thanhk for share album !
Orphan
Please can this be re-uploaded?
morbidangelo
re-up thanks
orloff2000
Thank you very much, but unfortunately the link is no longer available 6.gif
Can anyone help?
Borderline1991
[ Hidden Text ]
This is a "lo-fi" version of our main content. To view the full version with more information, formatting and images, please click here.
Invision Power Board © 2001-2021 Invision Power Services, Inc.