Help - Search - Members - Calendar
Full Version: Рэйнхардт - Пина колада (2013)
Metal Area - Extreme Music Portal > Releases Area / Релизы > Archive
aesteticvice


*Artist: Рэйнхардт
*Album: Пина колада [single]
*Year: 2013
*Genre: Atmospheric Doom/Death Metal
*Country: Russian Federation
*Format: mp3@CBR320kbps
*Size: 103MB

Tracklist:
1. Янтарь
2. Бархатный День
3. Серебро и Яшма (She Will Come Back...)
4. Витражи
5. Верность
6. Идущая Навстречу
7. Когда Смерть Примирит Нас...
8. Серебро и Яшма (Кода)
******************************
Total playing time: 44:31

Preview 1

Extended info
Der Partizan - вокал / бас
Райнер Рэйнхардт - гитара, FX
Евгений Bordo - ударные


Technical info

Input File: 02 Бархатный день.mp3
Channels : 2
Sample Rate : 44100
Precision : 16-bit
Duration : 00:05:47.75 = 15335819 samples = 26081.3 CDDA sectors
File Size : 14.0M
Bit Rate : 321k
Sample Encoding: MPEG audio (layer I, II or III)
Comments :
Title=Бархатный день
Artist=Рэйнхардт
Album=Пина Колада
Tracknumber=2
Year=2013
Genre=Doom Metal



[ Hidden Text ]
Old Vyaine
Сингл или епиха пару-тройку лет назад у них очень даже ничего были.
Герб
Не,такие релизы только для эстетов 1488.gif
aesteticvice
ЦИТАТА(Old Vyaine @ Sep 14 2013, 11:48:45) *
Сингл или епиха пару-тройку лет назад у них очень даже ничего были.

Отличный альбом 20.gif

ЦИТАТА(gerb @ Sep 14 2013, 11:49:08) *
Не,такие релизы только для эстетов 1488.gif

для любителй мелодичного дум дэта
Герб
ЦИТАТА(aesteticvice @ 14th September 2013 - 12:59:59) *
для любителй мелодичного дум дэта
может быть,если певца сменить...
Dmitry1977
Не, ну названия )) Давно так не хохотался. А Рейнхардт - это который Джанго (тогда стиль надо "атмосферик-мануш деатх/дуум")?
Раз они меня так рассмешили - я даже качну ознакомиться.
Vrolok
ЦИТАТА(aesteticvice @ Sep 14 2013, 14:59:59) *
Отличный альбом 20.gif
для любителй мелодичного дум дэта


Поддерживаю!!! 9.gif
aesteticvice
кстати, это проект участников DIGIMORTAL

ЦИТАТА(Dmitry1977 @ Sep 14 2013, 12:09:32) *
А Рейнхардт - это который Джанго

Выбирай, а я предположу что речь об Эде crazy.gif хотя версии о Вермахте по мне прикольней
Альфред Герман (1897—1973) — генерал-лейтенант вермахта, участник первой и второй мировых войн (в 1941–44 — на территории СССР).
Рейнгардт, Генрих (1903—1990) — аргентинский шахматист.
Георг Ханс (1887—1967) — генерал-полковник вермахта, участник первой и второй мировых войн (в 1941–45 — на территории СССР).
Джанго (1910—1953) — джазмен.
Макс (1873—1943) — режиссёр.
Фриц (1895—1969) — участник первой мировой войны, обергруппенфюрер СА, в 1933–45 статс-секретарь министерства финансов Германии.
Эд (1913—1967) — американский художник-конструктивист.
kostja
А "пина колада" - это так ламеры Пинья колада называют 1488.gif
Dmitry1977
Послушал трек на yotube ... facepalm шестые сутки. Удачи парням, они вероятно хотят делать что-то хорошее. Может когда-нить и получится. А для меня melodic doom/death это всякие там Saturnus и Officium Triste.
aesteticvice
ЦИТАТА(Dmitry1977 @ Sep 14 2013, 16:58:30) *
Послушал трек на yotube ... facepalm шестые сутки. Удачи парням, они вероятно хотят делать что-то хорошее. Может когда-нить и получится. А для меня melodic doom/death это всякие там Saturnus и Officium Triste.

Вообще это такой "медлячек" полуакустический, альбом вполне дум дэтовый, впрочем пофиг, у нас на форуме принято писать рецензии по превьюшному ютубу 1488.gif
Dmitry1977
Прогнал половину альбома - в целом неплохо.
aa144aa
В восторге. Спс.
Aresson
а мне не понравилось
Dipsomaniac
Обновите ссылки пожалуйста
Living_Beat
Какую каладу пинал рехард?
This is a "lo-fi" version of our main content. To view the full version with more information, formatting and images, please click here.
Invision Power Board © 2001-2021 Invision Power Services, Inc.