Help - Search - Members - Calendar
Full Version: A Perfect Circle - Three Sixty [best of/compilation] (2013)
Metal Area - Extreme Music Portal > Releases Area / Релизы > New Releases > Unformat R:
aesteticvice


*Artist: A Perfect Circle
*Album: Three Sixty [best of/compilation]
*Year: 2013
*Genre: Progressive Rock
*Country: United States
*Format: mp3@CBR320kbps
*Size: 206MB

Tracklist:
CD1:
01. The Hollow
02. Rose
03. Judith
04. Orestes
05. 3 Libras
06. The Package
07. Weak And Powerless
08. The Noose
09. The Outsider
10. Blue
11. Imagine
CD2:
12. Passive
13. People Are People (Live)
14. Counting Bodies Like Sheep To The Rhythm Of The War Drums
15. When The Levee Breaks
16. By And Down
17. 3 Libras (Live)
18. Gravity (Live)
19. Fiddle and The Drum (Live)
******************************
Total playing time: 1:27:45

Extended info
(Deluxe Edition)
Three Sixty, a greatest hits release featuring new song "By and Down," out Nov. 19.


Technical info

Input File: 02 - Rose.mp3
Channels : 2
Sample Rate : 44100
Precision : 16-bit
Duration : 00:03:24.09 = 9000369 samples = 15306.8 CDDA sectors
File Size : 8.17M
Bit Rate : 320k
Sample Encoding: MPEG audio (layer I, II or III)
Comments :
Title=Rose
Artist=A Perfect Circle
Album=Three Sixty
Tracknumber=2
Year=2013
Discnumber=1



[ Hidden Text ]
nagval
Адская смесь Tool и Anathema. Дико рекомендую
This is a "lo-fi" version of our main content. To view the full version with more information, formatting and images, please click here.
Invision Power Board © 2001-2020 Invision Power Services, Inc.