Help - Search - Members - Calendar
Full Version: Nachtreich - Trugbilder (2013)
Metal Area - Extreme Music Portal > Releases Area / Релизы > New Releases > Unformat R:
CryptOn


*Artist: Nachtreich
*Album: Trugbilder
*Year: 2013
*Genre: Neoclassical Darkwave
*Country: Germany
*Format: mp3@CBR320kbps
*Size: 90MB

Tracklist:
01. Im Fieber 3:20
02. Traum(a) 13:36
03. Gestalten 5:52
04. Trance 7:39
05. Frei schwebend 8:56
******************************
Total playing time: 39:23



Technical info

Input File: NACHTREICH - Trugbilder - 01 Im Fieber.mp3
Channels : 2
Sample Rate : 44100
Precision : 16-bit
Duration : 00:03:20.38 = 8836626 samples = 15028.3 CDDA sectors
File Size : 8.03M
Bit Rate : 321k
Sample Encoding: MPEG audio (layer I, II or III)
Comments :
Title=Im Fieber
Artist=NACHTREICH
Album=Trugbilder
Tracknumber=1
Year=2013



[ Hidden Text ]
Witchlord
Неожиданный альбом, радует что группа еще функционирует. Лося бы надыбать еще))
CryptOn
Witchlord,
группа не функционирует, у них теперь пост-роковый проект How We Leave This Place. Под этим названием будет ещё несколько релизов (я так понимаю, записанное ранее и не изданное). Лося вечером могу запилить.
CryptOn
лось с бэндкампа
[ Hidden Text ]
Borderline1991
[ Hidden Text ]

[ Hidden Text ]
This is a "lo-fi" version of our main content. To view the full version with more information, formatting and images, please click here.
Invision Power Board © 2001-2019 Invision Power Services, Inc.