Help - Search - Members - Calendar
Full Version: Rhodian - Fact-Or-Your Fiction? (2000)
Metal Area - Extreme Music Portal > Releases Area / Релизы > New Releases > Unformat R:
Gelukas


*Artist: Rhodian
*Album: Fact-Or-Your Fiction?
*Year: 2000
*Genre: Industrial Metal
*Country: Czech Republic
*Format: mp3@CBR320kbps
*Size: 96MB

Tracklist:
1. Intro
2. Millenium 2000
3. Free
4. I Enjoy Life Like A Poison
5. Crystal Song
6. Ecstasy!
7. My Galaxy
8. Disconnection
9. In This Time
10. Woman
11. Dreams About Integration
12. Outro
13. Bonus - Culture Of Housing Estate
******************************
Total playing time: 42:04

Bandzone

Extended info
All tracks in one file.


Technical info

Input File: Rhodian - Fact-Or-Your Fiction.mp3
Channels : 2
Sample Rate : 44100
Precision : 16-bit
Duration : 00:42:04.27 = 111320263 samples = 189320 CDDA sectors
File Size : 101M
Bit Rate : 320k
Sample Encoding: MPEG audio (layer I, II or III)
Comments :
Artist=Rhodian
Album=Fact-Or-Your Fiction?
Year=2000
Genre=9



[ Hidden Text ]
SyncestrA
320 k:
[ Hidden Text ]
This is a "lo-fi" version of our main content. To view the full version with more information, formatting and images, please click here.
Invision Power Board © 2001-2020 Invision Power Services, Inc.