Help - Search - Members - Calendar
Full Version: Doctor Cyclops - Oscuropasso (2014)
Metal Area - Extreme Music Portal > Releases Area / Релизы > Archive
Samaritianin


*Artist: Doctor Cyclops
*Album: Oscuropasso
*Year: 2014
*Genre: Doom Metal/Heavy/Progressive Rock
*Country: Italy
*Format: mp3@CBR320kbps
*Size: 105MB

Tracklist:
01. Waterfalls 06:09
02. The Monk 09:59
03. Angel Saviour in the C.H. 06:50
04. Cobweb Hands 07:18
05. Rotten Trolls 15:49
******************************
Total playing time: 46:05




Technical info

Input File: 02 The Monk.mp3
Channels : 2
Sample Rate : 44100
Precision : 16-bit
Duration : 00:10:01.22 = 26513582 samples = 45091.1 CDDA sectors
File Size : 24.0M
Bit Rate : 320k
Sample Encoding: MPEG audio (layer I, II or III)
Comments :
Title=The Monk
Artist=Doctor Cyclops
Album=Oscuropasso
Tracknumber=02/5
Year=2014
Genre=Rock
Discnumber=1/1



[ Hidden Text ]
Lightbringer
Интервью с Doctor Cyclops: http://www.metallibrary.ru/articles/interviews/556.html
orloff2000
Thank you very much, but unfortunately the link is no longer available 6.gif
Can anyone help?
Borderline1991
[ Hidden Text ]
This is a "lo-fi" version of our main content. To view the full version with more information, formatting and images, please click here.
Invision Power Board © 2001-2021 Invision Power Services, Inc.