Help - Search - Members - Calendar
Full Version: Katatonia - Kocytean [Compilation] (2014)
Metal Area - Extreme Music Portal > Releases Area / Релизы > New Releases > Unformat R:
metadeat


*Artist: Katatonia
*Album: Kocytean [Compilation]
*Year: 2014
*Genre: Atmospheric Depressive Rock
*Country: Sweden
*Format: mp3@CBR320kbps
*Size: 61MB

Tracklist:
1. Unfurl 04:52
2. Sold Heart 04:32
3. Ashen 04:09
4. Second 03:33
5. Code Against the Code 03:34
6. The Act of Darkening 05:55
******************************
Total playing time: 26:35

HomePage


Technical info

Input File: 01. Unfurl.mp3
Channels : 2
Sample Rate : 44100
Precision : 16-bit
Duration : 00:04:53.04 = 12923240 samples = 21978.3 CDDA sectors
File Size : 11.7M
Bit Rate : 320k
Sample Encoding: MPEG audio (layer I, II or III)
Comments :
Title=Unfurl
Artist=Katatonia
Album=Kocytean
Tracknumber=01
Year=2014
Genre=Metal



[ Hidden Text ]
Kwaad

Атмосферненько.
Battaleon
продолжение dead end kings и dethroned & uncrowned + практически полностью ep без агрессии
upd из старых только ashen вроде бы hmm.gif
DenisKov
Старых песен еще зачем то засунули или мастеринг другой? впрочем сейчас послушаем, да узнаем.
metadeat
ЦИТАТА(DenKov @ Apr 6 2014, 16:10:33) *
Старых песен еще зачем то засунули или мастеринг другой? впрочем сейчас послушаем, да узнаем.


Ссылки же даю..

The annual record store day is coming on april 19th, so how do we celebrate this? Katatonia collectors and vinyl lovers will be pleased to know that we’ve compiled some of our most rare and appreciated b-sides on a 12″ vinyl for the first time ever! Printed on matte reversed stock and limited to 2000 copies, ‘Kocytean’ will be available only from independent record stores, so get ready to hunt down your copy next month and enjoy this beautiful vinyl release!
Sky7Daemon
So how's this ripped if it is released in 2 weeks? hmm.gif
frost192
Лирика
Хорошая атмосфера.
BERZERK
ЦИТАТА(Battaleon @ Apr 6 2014, 17:47:37) *
upd из старых только ashen вроде бы hmm.gif

Все выходили либо в синглах либо бонусами = NO REMASTER or REISSUE 666
1 = 03 на сингле July (2007)
2 = 02 на EP The Longest Year (2010)
3 = 12 бонус на Night Is The New Day (2009)
4 = 12 бонус на Dead End Kings (2012)
5 = 03 на сингле Deliberation (2006)
6 = 13 бонус на Dead End Kings (2012)
smile3.gif
Kub
костян111111
BoomBox
Хорошая компиляция, с оформлением отлично.
6666666
Многое услышал в первый раз, но кроме Анфюрл все скучно.
SatanicPanzer
Шведы Katatonia продолжают свое движение к вершинам депрессии. Небольшой, но атмосферный и лиричный миник вполне способен пробудить грусть в слушателе. Приятная мрачность так обволакивает собою, грозя утащить в бездны самосозерцания. Все же последние несколько альбомов в шведы радуют, по крайней мере меня. Жду полноформат, теперь с еще большим нетерпением. 9.gif 9.gif 9.gif
psychonaut
А чё мне не сказали? 17.gif Нефига себе лежит тут... Я ж обожаю песню Unfurl !!!
frost192
Вот и рип родного винила - названия песен и тэги оригинальные как в источнике.

507 Mb flac
[ Hidden Text ]
psychonaut
Ох уж этот винил. Что не рип, то тяжеленный. А толку то? Девать уже их некуда headcrab.png
Но здесь всё чисто. К тому же, насколько понял, CD варианта Kocytean нет.
Не всегда так бывает, но когда качаю винил-рипы например ambient (при отсутствии loss less CD рипа или наличия на форуме только APE формата, а так обычно воздерживаюсь) расстраивает посторонняя трескотня.
Shub
А в шапке разве не с CD-варианта рип? Никакого винилового звучания там не обнаружено. Или кто-то просто насобирал релиз с разных источников?
psychonaut
ЦИТАТА(Shub @ Apr 23 2014, 02:45:44) *
Никакого винилового звучания там не обнаружено

Да. На discogs указаны вроде одни 12".
В шапке, где 320 действительно непонятно. Скорее всего, дело было так, узнав о трек-листе, кто-то в сети взял и надёргал эти треки с прошлых сиди бонусов из дискографии 1488.gif . Все песни уже выходили, их просто нужно было собрать рядышком под видом чего-то "нового".
А flac звучит нормально. Всё же гораздо больший смысл его качать, чтобы услышать шесть треков в качестве, нежели заново дёргать то, что по-сути давно уже есть.
Хии, Unfurl флачинский 20.gif Спасибо, Дим.
frost192
ЦИТАТА(Shub @ Apr 23 2014, 02:45:44) *
А в шапке разве не с CD-варианта рип? Никакого винилового звучания там не обнаружено. Или кто-то просто насобирал релиз с разных источников?


В шапке рип с вконтакта - качал и сравнивал - один в один.
nagval
Депрессивный, неплохо.
psychonaut
Code Against The Code - шикарная интонация - Soul thinned out - Spit it out. Убийственный мотив урбанистических пустырей.
Unrestrock
Broken link!!!
Reupload please.
This is a "lo-fi" version of our main content. To view the full version with more information, formatting and images, please click here.
Invision Power Board © 2001-2019 Invision Power Services, Inc.