Help - Search - Members - Calendar
Full Version: Catacombe - Quidam (2014)
Metal Area - Extreme Music Portal > Releases Area / Релизы > New Releases > Unformat R:
Dirt_ORFEY


*Artist: Catacombe
*Album: Quidam
*Year: 2014
*Genre: Post Rock
*Country: Portugal
*Format: mp3@CBR320kbps
*Size: 84MB

Tracklist:
1. Zenith
2. Ninho de Vespas
3. Shroud
4. Lolita
5. Mental Confusion
6. Nadir
******************************
Total playing time: 36:47

Technical info

Input File: 01. Zenith.mp3
Channels : 2
Sample Rate : 44100
Precision : 16-bit
Duration : 00:05:43.13 = 15131901 samples = 25734.5 CDDA sectors
File Size : 13.8M
Bit Rate : 321k
Sample Encoding: MPEG audio (layer I, II or III)
Comments :
Title=Zenith
Artist=Catacombe
Album=Quidam
Tracknumber=1
Year=2014
Genre=Rock



[ Hidden Text ]
zargonath
youtube preview

youtube preview
johnbutoff


Post-Rock/Atmospheric Sludge Metal - так будет лучше и понятнее

трек Shroud хорош...
KoreanGringo
Post-Rock/Post-Metal, BORING
Old Vyaine
QUOTE(KoreanGringo @ 23rd April 2014 - 20:57:29) *
BORING


Если не слушать, то да.
6666666
Эти стили по умолчанию BORING.

P.S. Слушал, знаю.
johnbutoff
ЦИТАТА(6666666 @ Apr 23 2014, 21:12:19) *
Эти стили по умолчанию BORING.


ну кому ведь как.. но в данном случае соглашусь, практически ровный альбом, пару раз шло фоном на работе...
acerbus
Добротно сделанный, но абсолютно вторичный материал. Слушать, в принципе, можно, но я не буду, незачем.
ЦИТАТА(6666666 @ 23rd April 2014 - 21:12:19) *
Эти стили по умолчанию BORING.

Чушь собачья.
aesteticvice
боринг очень крут!, группа гавно , спасибо [ Hidden Text ]
folker
Ровно, мелодично, но скучно.
ElfinQueen
[ Hidden Text ]
This is a "lo-fi" version of our main content. To view the full version with more information, formatting and images, please click here.
Invision Power Board © 2001-2020 Invision Power Services, Inc.