Help - Search - Members - Calendar
Full Version: Norrsken - Anfall [demo] (2006)
Metal Area - Extreme Music Portal > Releases Area / Релизы > New Releases > Low Bitrate
Gelukas


*Artist: Norrsken
*Album: Anfall [demo]
*Year: 2006
*Genre: Viking/Black Metal
*Country: Sweden
*Format: mp3@CBR320kbps
*Size: 35MB

Tracklist:
1. Anfall 04:24
2. Omfamnande Mörker 03:57
3. Vargadom 03:54
4. I Frostdödens Grepp 02:58
******************************
Total playing time: 15:13



Technical info

Input File: 01. Anfall.mp3
Channels : 2
Sample Rate : 48000
Precision : 16-bit
Duration : 00:04:24.94 = 12716928 samples ~ 19870.2 CDDA sectors
File Size : 10.6M
Bit Rate : 321k
Sample Encoding: MPEG audio (layer I, II or III)
Comments :
Artist=Norrsken
Album=Anfall
Tracknumber=01
Year=2006
Genre=9



[ Hidden Text ]
Angeldemon617
Re-up please pray.gif

If someone wants it. Järnvidr's only album (the new band created after Norrsken was renamed). Good Swedish pagan/viking/black metal.
Taken from https://rac-forum.org
[ Hidden Text ]
thenecromancer
Still searching..... smile2.gif
This is a "lo-fi" version of our main content. To view the full version with more information, formatting and images, please click here.
Invision Power Board © 2001-2022 Invision Power Services, Inc.