Help - Search - Members - Calendar
Full Version: Dragon's Kiss - Barbarians Of The Wasteland (2014)
Metal Area - Extreme Music Portal > Releases Area / Релизы > Archive
Samaritianin


*Artist: Dragon's Kiss
*Album: Barbarians Of The Wasteland
*Year: 2014
*Genre: Heavy Metal
*Country: Portugal
*Format: mp3@CBR320kbps
*Size: 92MB

Tracklist:
1. Barbarians Of The Wasteland
2. Ride For Revenge
3. Ride Till We Die
4. Wild Pack Of Dogs
5. Somewhere Up In The Mountains (Marquis De Sade Cover)
6. Castle Of The Witch
7. Rock 'n 'Roll Soldiers (The New Order Cover)
8. I Embraced The Serpent And The Devil In The Dark
******************************
Total playing time: 40:03




Technical info

Input File: 02 - Ride for Revenge.mp3
Channels : 2
Sample Rate : 44100
Precision : 16-bit
Duration : 00:04:16.18 = 11297670 samples = 19213.7 CDDA sectors
File Size : 10.5M
Bit Rate : 327k
Sample Encoding: MPEG audio (layer I, II or III)
Comments :
Title=Ride for Revenge
Artist=Dragon'S Kiss
Album=Barbarians of the Wasteland
Tracknumber=2/8
Year=2014



[ Hidden Text ]
vosmidesijatye
Отличнейшая раздолбайская, адреналинно-наполненная зверскость. Больше всего напомнило Venom и вообще то время. Это отлично, что португальцы смогли нарулить такой релиз. Именно подобная инкарнация стиля нам всем, угорающим по золотым 80-м и нужна. Дьявол трясёт башкой на байке по пути пивас хлеща и содомируя тёток.
Ulfhethnaar
Альтернативная ссылка
[ Hidden Text ]
orloff2000
Thank you very much, but unfortunately the link is no longer available 6.gif
Can anyone help?
Borderline1991
[ Hidden Text ]
Deze
ЦИТАТА(vosmidesijatye @ Feb 20 2015, 02:30:45) *
Дьявол трясёт башкой на байке по пути пивас хлеща и содомируя тёток.

Маэстро в очередной раз использует слово, значения которого не знает 1488.gif
This is a "lo-fi" version of our main content. To view the full version with more information, formatting and images, please click here.
Invision Power Board © 2001-2021 Invision Power Services, Inc.