Help - Search - Members - Calendar
Full Version: Nazareth - Rock 'n' Roll Telephone (2014)
Metal Area - Extreme Music Portal > Releases Area / Релизы > New Releases > Unformat R:
paganheart


*Artist: Nazareth
*Album: Rock 'n' Roll Telephone
*Year: 2014
*Genre: Hard Rock
*Country: United Kingdom
*Format: mp3@CBR320kbps
*Size: 183MB

Tracklist:
01. Boom Bang Bang
02. One Set of Bones
03. Back 2b4
04. Winter Sunlight
05. Rock 'N' Roll Telephone
06. Punch a Hole in the Sky
07. Long Long Time
08. The Right Time
09. Not Today
10. Speakeasy
11. God of the Mountain
12. Just a Ride
13. Wanna Feel Good?
14. Big Boy (Live)
15. Kentucky Fried Blues (Live)
16. Sunshine (Live)
17. Expect No Mercy (Live)
18. God Save the South (Live)
******************************
Total playing time: 1:16:14



Extended info
Dan McCafferty - Vocals (since February 2014)
Pete Agnew - Bass
Jimmy Murrison - Guitar
Lee Agnew - Drums


Technical info

Input File: 02. One Set of Bones.mp3
Channels : 2
Sample Rate : 44100
Precision : 16-bit
Duration : 00:03:25.68 = 9070664 samples = 15426.3 CDDA sectors
File Size : 8.40M
Bit Rate : 327k
Sample Encoding: MPEG audio (layer I, II or III)
Comments :
Title=One Set of Bones
Artist=Nazareth
Album=Rock 'N' Roll Telephone (Deluxe Edition)
Tracknumber=2/18
Year=2014
Genre=Hard Rock
Discnumber=1/1



[ Hidden Text ]
vosmidesijatye
Название уж больно нафталиново-смешное.
vosmidesijatye
альбома,
hammer
Драйву как то маловато будет.
Radiosilence
эээээ.... ребята, а у меня Uriah Heep 2014 скачался вместо Назарета ))) тоже хорошо, конечно, но все-таки непорядок)
canadaspaceman
Nazareth 2014 Rock 'N' Roll Telephone CD FLAC 8+scans
318 MB
[ Hidden Text ]
This is a "lo-fi" version of our main content. To view the full version with more information, formatting and images, please click here.
Invision Power Board © 2001-2019 Invision Power Services, Inc.