Help - Search - Members - Calendar
Full Version: Talanas - Asylum (2014)
Metal Area - Extreme Music Portal > Releases Area / Релизы > New Releases > Unformat R:
Samaritianin


*Artist: Talanas
*Album: Asylum
*Year: 2014
*Genre: Gothic Rock/Folk/Acoustic
*Country: United Kingdom
*Format: mp3@CBR320kbps
*Size: 64MB

Tracklist:
1. Sister Damnable 07:06
2. My Lady White 06:32
3. The Apostle 03:33
4. Asylum 07:15
5. Nothing Gained 05:02
******************************
Total playing time: 29:28



Technical info

Input File: 02. My Lady White.mp3
Channels : 2
Sample Rate : 44100
Precision : 16-bit
Duration : 00:06:31.90 = 17282878 samples = 29392.6 CDDA sectors
File Size : 15.7M
Bit Rate : 320k
Sample Encoding: MPEG audio (layer I, II or III)
Comments :
Title=My Lady White
Artist=Talanas
Album=Asylum
Tracknumber=2
Year=2014
Genre=Progressive Death Metal



[ Hidden Text ]
vosmidesijatye
А вот и мой оргазм пришёл. spitggis0.gif spitggis0.gif spitggis0.gif pray.gif pray.gif pray.gif
BleedingSun
ЦИТАТА(vosmidesijatye @ Jun 10 2014, 17:59:50) *
А вот и мой оргазм пришёл. spitggis0.gif spitggis0.gif spitggis0.gif pray.gif pray.gif pray.gif

Не слышал их раньше... Но "умный" прог/дез люблю. Вкратце можешь пояснить, в чём "оргазмичность" сего коллектива? crazy.gif
MEMENTO MORI
Я может чего то отстал от жизни, но что то не похоже на бендкампе на детх)
KoreanGringo
Gothic Rock/Folk/Acoustic, или просто Depressive Rock, или Dark Acoustic/Folk
shitsic
Никакой ни дэт, а это даже к лучшему! Офигенный диск, побольше бы такого материала: насыщенного, душевного и даркового! smile1.gif
vosmidesijatye
Их офигенность в дебютнике - второй AKERCOCKE
vosmidesijatye
Вот в этих чуви уверен, чтобы они ни записали. Такой самобытно классный дебют запилить, теперь им все позволено, хотя я бы предпочел продолжение (кальку) полноформата, уж больно охота раз в несколько лет отведать нового Акиркоке.
AHBAnep
Мда, не то, что ждал, а некий Depressive Progressive Rock. Но материал хорош!
ersegoth
Не ожидал такой унылости от них 22.gif Дебютник подавал неплохие надежды. Причем тут прог-дэт лично мне не ясно.
DenisKov
Мда, бяка редкостная, не зависимо от стиля. шифт+дел
kupiszcze
Repost it!
sperminator
from the web
[ Hidden Text ]
aesteticvice
самаритянин похоже дунул, во первых это EP, во вторых неформат, готик дарк рок, даже намека на любой метал и хард рок нет fear.gif тем более дэт, все это можно послушать или почитать на превью 1488.gif а можно просто вбросить на дурака, как он любит писать
sperminator
тут хитрая картина вырисовывается: Самаритянин дунул, а к 80-му "оргазм пришёл" (см. первый камент в теме)
ничоси! 1488.gif
aesteticvice
ЦИТАТА(sperminator @ Apr 20 2016, 06:11:45) *
тут хитрая картина вырисовывается: Самаритянин дунул, а к 80-му "оргазм пришёл" (см. первый камент в теме)
ничоси! 1488.gif

Оргазм авансом как всегда, на всякий случай
DarkHorde
ЦИТАТА(aesteticvice @ 20th April 2016 - 18:38:27) *
Оргазм авансом как всегда, на всякий случай

А ему много и не надо, на картинку глянул... и кончил... рецуху писать. 1488.gif
This is a "lo-fi" version of our main content. To view the full version with more information, formatting and images, please click here.
Invision Power Board © 2001-2019 Invision Power Services, Inc.