Help - Search - Members - Calendar
Full Version: Perennial Isolation - Conviction Of Voidness (2014)
Metal Area - Extreme Music Portal > Releases Area / Релизы > Archive
Samaritianin


*Artist: Perennial Isolation
*Album: Conviction Of Voidness
*Year: 2014
*Genre: Atmospheric Black Metal
*Country: Spain
*Format: mp3@CBR320kbps
*Size: 73MB

Tracklist:
1. Waterfalls From Nothing
2. Majestic Void
3. My Last Journey To Nowhere
4. The Wheel Of Desolated Madness
5. Lost In The Mist
6. Narayama
7. The Wind Comes From Aokigahara
8. Prelude To Voidness
******************************
Total playing time: 32:41



Technical info

Input File: 03. My Last Journey To Nowhere.mp3
Channels : 2
Sample Rate : 44100
Precision : 16-bit
Duration : 00:04:27.55 = 11798867 samples = 20066.1 CDDA sectors
File Size : 10.7M
Bit Rate : 320k
Sample Encoding: MPEG audio (layer I, II or III)
Comments :
Title=My Last Journey To Nowhere
Artist=Perennial Isolation
Album=Conviction Of Voidness
Tracknumber=03/08
Year=2014
Genre=Black Metal



[ Hidden Text ]
rimfrost
LordIncubus
Re-up please!!! 6.gif 6.gif 6.gif
sperminator
from the web
[ Hidden Text ]
satanist666
PERENNIAL ISOLATION:
This is a "lo-fi" version of our main content. To view the full version with more information, formatting and images, please click here.
Invision Power Board © 2001-2021 Invision Power Services, Inc.