Help - Search - Members - Calendar
Full Version: Wim Mertens - Struggle For Pleasure/Double Entendre (2012)
Metal Area - Extreme Music Portal > Releases Area / Релизы > New Releases > Unformat R:
Герб


*Artist: Wim Mertens
*Album: Struggle For Pleasure/Double Entendre
*Year: 2012
*Genre: Modern Classical/Minimal
*Country: Belgium
*Format: mp3@CBR320kbps
*Size: 211MB

Tracklist:
CD 1:Struggle For Pleasure
01. Tourtour 2:38
02. Struggle For Pleasure 4:02
03. Salernes 3:06
04. Close Cover 3:22
05. Bresque 2:40
06. Gentleman Of Leisure 4:33
07. Inergys 3:15
08. Circular Breathing 3:52
09. Mildly Skeeming 7:16
10. 4 mains 3:18
11. Multiple 12 6:45
12. Inergys (Reprise) 7:01
CD 2:Double Entendre
01. Line Bundles 3:25
02. Sieve Coverings 4:37
03. Chordal Graphs 0:39
04. Suite exacte 0:42
05. Gentleman Of Leisure* 4:17
06. Unwinding Nests 5:03
07. Without Fioritures 4:04
08. Simple Repose 2:31
09. Salernes 4:12
10. Families Of Characters 5:25
11. Rings Of Invariants 4:32
12. Cryptic Reserve 3:48
******************************
Total playing time: 1:35:03



Extended info
2012 – Struggle for Pleasure / Double Entendre (2-CDs: one reissue, one of unreleased material from that period)


Technical info

Input File: 01 - Tourtour.mp3
Channels : 2
Sample Rate : 44100
Precision : 16-bit
Duration : 00:02:38.29 = 6980721 samples = 11872 CDDA sectors
File Size : 6.33M
Bit Rate : 320k
Sample Encoding: MPEG audio (layer I, II or III)
Comments :
Title=Tourtour
Artist=Wim Mertens
Album=Struggle For Pleasure
Tracknumber=01/12
Year=2012
Genre=Classical
Discnumber=1/2



[ Hidden Text ]
KKK1488
Круто - порно фото. негры бабу шпилят. интересно содержание.
This is a "lo-fi" version of our main content. To view the full version with more information, formatting and images, please click here.
Invision Power Board © 2001-2022 Invision Power Services, Inc.