Help - Search - Members - Calendar
Full Version: Gnaw Their Tongues - Wir Essen Seelen In Der Nacht [ep] (2014)
Metal Area - Extreme Music Portal > Releases Area / Релизы > New Releases > Unformat R:
CryptOn


*Artist: Gnaw Their Tongues
*Album: Wir Essen Seelen In Der Nacht [ep]
*Year: 2014
*Genre: Black Noise
*Country: Netherlands
*Format: mp3@CBR320kbps
*Size: 45MB

Tracklist:
01. A Calm Friday Evening in Hinterkaifeck :54
02. Wir essen Seelen in der Nacht 4:32
03. The Gate of Death 5:44
04. Droom van de Rattenvreter 5:32
******************************
Total playing time: 15:48



Technical info

Input File: Gnaw Their Tongues - Wir Essen Seelen In Der Nacht - 01 A Calm Friday Evening In Hinterkaifeck.mp3
Channels : 2
Sample Rate : 44100
Precision : 16-bit
Duration : 00:02:54.17 = 7681073 samples = 13063 CDDA sectors
File Size : 7.30M
Bit Rate : 335k
Sample Encoding: MPEG audio (layer I, II or III)
Comments :
Title=A Calm Friday Evening in Hinterkaifeck
Artist=Gnaw Their Tongues
Album=Wir essen Seelen in der Nacht
Tracknumber=1
Year=2014
Genre=Black Noise



[ Hidden Text ]
Rikardo90
link is dead smile2.gif
varg-38ru
ЦИТАТА(Rikardo90 @ Apr 4 2016, 06:04:02) *
link is dead smile2.gif

use BandCamp
This is a "lo-fi" version of our main content. To view the full version with more information, formatting and images, please click here.
Invision Power Board © 2001-2019 Invision Power Services, Inc.