Help - Search - Members - Calendar
Full Version: Lebensnacht - Syksyn Kuoleminen (2013)
Metal Area - Extreme Music Portal > Releases Area / Релизы > Archive
lestllk


*Artist: Lebensnacht
*Album: Syksyn Kuoleminen
*Year: 2013
*Genre: Atmospheric Black Metal/Neofolk
*Country: Germany
*Format: mp3@CBR320kbps
*Size: 95MB

Tracklist:
1. Herbsttag 01:30
2. Welkes Leben 05:33
3. Herbststerben 06:50
4. Weiße Einsamkeit 04:08
5. Lebenswinter 06:57
6. Kuolema 08:57
7. Päättyminen 06:15
8. OH 00:33
******************************
Total playing time: 40:43

Technical info

Input File: 04 Wei?e Einsamkeit.mp3
Channels : 2
Sample Rate : 44100
Precision : 16-bit
Duration : 00:04:08.11 = 10941563 samples = 18608.1 CDDA sectors
File Size : 10.1M
Bit Rate : 325k
Sample Encoding: MPEG audio (layer I, II or III)
Comments :
Title=WeiГџe Einsamkeit
Artist=Lebensnacht
Album=Syksyn Kuoleminen
Tracknumber=4
Year=2013



[ Hidden Text ]
vasiljev_sergej
[ Hidden Text ]
satanist666
LEBENSNACHT:


NATURMACHT Productions:
This is a "lo-fi" version of our main content. To view the full version with more information, formatting and images, please click here.
Invision Power Board © 2001-2021 Invision Power Services, Inc.