Help - Search - Members - Calendar
Full Version: Eternal Khan - A Poisoned Psalm (2014)
Metal Area - Extreme Music Portal > Releases Area / Релизы > New Releases > Lossless
Samaritianin


*Artist: Eternal Khan
*Album: A Poisoned Psalm
*Year: 2014
*Genre: Black/Doom Metal
*Country: United States
*Format: mp3@CBR320kbps
*Size: 86MB

Tracklist:
1. Bells On The Black Hour
2. Raging Host
3. Undermined And Abandoned
4. The Tower
5. The Black Stork
6. Void Of Light And Reconciliation
7. Into The Twilight Abysses
******************************
Total playing time: 39:27

Preview 1

Technical info

Input File: 03 - Undermined and Abandoned.mp3
Channels : 2
Sample Rate : 44100
Precision : 16-bit
Duration : 00:05:41.19 = 15046655 samples = 25589.5 CDDA sectors
File Size : 13.7M
Bit Rate : 322k
Sample Encoding: MPEG audio (layer I, II or III)
Comments :
Title=Undermined and Abandoned
Artist=Eternal Khan
Album=A Poisoned Psalm
Tracknumber=3/7
Year=2014
Genre=Black Metal
Discnumber=1/1



[ Hidden Text ]
orloff2000
Thank you very much, but unfortunately the link is no longer available 6.gif
Can anyone help?
Borderline1991
[ Hidden Text ][ Hidden Text ]
This is a "lo-fi" version of our main content. To view the full version with more information, formatting and images, please click here.
Invision Power Board © 2001-2021 Invision Power Services, Inc.