Help - Search - Members - Calendar
Full Version: Disloyal - March Or Die (2000)
Metal Area - Extreme Music Portal > Releases Area / Релизы > Archive
necroscum


*Artist: Disloyal
*Album: March Or Die
*Year: 2000
*Genre: Thrash/Death/Black Metal
*Country: Slovakia
*Format: mp3@CBR320kbps
*Size: 89MB

Tracklist:
01. Beginning Of The End 05:01
02. Blind Horror 05:12
03. Fatal Attraction 04:07
04. Old Testament 03:46
05. White Evil 04:27
06. The Way Of The Desperate 05:52
07. Reason To Kill 02:55
08. Witching Flint 03:37
09. DCLXVI 04:40
******************************
Total playing time: 39:37



Technical info

Input File: 02. Blind Horror.mp3
Channels : 2
Sample Rate : 44100
Precision : 16-bit
Duration : 00:05:12.33 = 13773577 samples = 23424.5 CDDA sectors
File Size : 12.5M
Bit Rate : 320k
Sample Encoding: MPEG audio (layer I, II or III)
Comments :
Title=Blind Horror
Artist=Disloyal
Album=March or Die
Tracknumber=02
Year=2000



[ Hidden Text ]
kastrup
Re-up please pray.gif pray.gif
kimkayoung
Sorry! Can't find an archive, but each track previewable or downloadable at 360 kbps for free if you want to preview or miss some tracks:

[ Hidden Text ]

[The site has been a bit unstable these days... and I'm not affiliated with the site!]

Also, anyone with their 2004 "Resting Evil"?

Many thanks in advance!
kastrup
Thanks, buddy ! 9.gif 9.gif

QUOTE(kimkayoung @ Jun 15 2022, 18:56:19) *
Sorry! Can't find an archive, but each track previewable or downloadable at 360 kbps for free if you want to preview or miss some tracks:



[The site has been a bit unstable these days... and I'm not affiliated with the site!]

Also, anyone with their 2004 "Resting Evil"?

Many thanks in advance!

This is a "lo-fi" version of our main content. To view the full version with more information, formatting and images, please click here.
Invision Power Board © 2001-2022 Invision Power Services, Inc.