Help - Search - Members - Calendar
Full Version: Closing The Eternity & Ad Lux Tenebrae - Skywards The Infinity [split] (2010)
Metal Area - Extreme Music Portal > Releases Area / Релизы > New Releases > Unformat R:
klesch


*Artist: Closing The Eternity & Ad Lux Tenebrae
*Album: Skywards The Infinity [split]
*Year: 2010
*Genre: Drone Ambient | Dark Ambient/Ritual
*Country: Russian Federation | Russian Federation
*Format: mp3@CBR320kbps
*Size: 197MB

Tracklist:
Closing The Eternity:
1. Behind Grey Mists
2. Facing The Shadowind
3. Funeral Pall Of Darkness
4. Prase Mirror
Ad Lux Tenebrae:
5. ...His Handshake Of Stone
6. Snakeroot And Bloodletting
7. Scent Of Sprucebark
8. Skywards The Infinity
******************************
Total playing time: 1:29:13

Technical info

Input File: 01 - Behind Grey Mists.mp3
Channels : 2
Sample Rate : 44100
Precision : 16-bit
Duration : 00:05:59.82 = 15868106 samples = 26986.6 CDDA sectors
File Size : 14.4M
Bit Rate : 320k
Sample Encoding: MPEG audio (layer I, II or III)
Comments :
Title=Behind Grey Mists
Artist=Closing The Eternity & Ad Lux Tenebrae
Album=Skywards The Infinity
Tracknumber=1/4
Year=2010
Discnumber=1



[ Hidden Text ]
Haunting
Ну, "Skywards the Infinity" это не сплит, а коллаборация между двумя уральскими проектами. Разделение трек-листа также неправильно - композиции писались совместно.
Favnius
добавьте актуальную работающую ссылку, плиззз 13.gif
This is a "lo-fi" version of our main content. To view the full version with more information, formatting and images, please click here.
Invision Power Board © 2001-2019 Invision Power Services, Inc.